<?xml version="1.0" standalone="no"?>
<!DOCTYPE svg PUBLIC "-//W3C//DTD SVG 1.1//EN" "http://www.w3.org/Graphics/SVG/1.1/DTD/svg11.dtd" >
<svg xmlns="http://www.w3.org/2000/svg">
<metadata>Generated by IcoMoon</metadata>
<defs>
<font id="kl-social-icons" horiz-adv-x="1024">
<font-face units-per-em="1024" ascent="870.4" descent="-153.6" />
<missing-glyph horiz-adv-x="1024" />
<glyph unicode="&#x20;" horiz-adv-x="0" d="" />
<glyph unicode="&#xe800;" glyph-name="duckduckgo" horiz-adv-x="1016" d="M0 350.976q0 220.16 144.384 363.52t363.52 144.384 364.544-144.384 143.36-363.52q0-186.368-105.472-320.512t-286.72-176.128q-9.216 17.408-33.792 53.248t-35.84 57.344q65.536-26.624 88.064-26.624 16.384 0 16.384 51.2 0 96.256-17.408 96.256-25.6 0-99.328-56.32 0 14.336-15.36 12.288h-5.12q-26.624 70.656-26.624 125.952 0 15.36 3.072 30.72 94.208-46.080 151.552-46.080 31.744 0 96.256 18.432t63.488 39.936q0 13.312-17.408 13.312-26.624 0-76.8-7.168t-76.8-7.168q-27.648 0-60.416 14.336t-33.792 38.912q0 5.12 2.048 7.168t4.096 3.072 6.144 0 8.192-1.024 9.216 0q9.216 0 26.624-3.072t25.6-2.048q31.744 0 130.048 36.864t98.304 58.368q0 12.288-18.432 17.408t-35.84 5.12q-14.336 0-43.008-8.192t-62.464-18.432-45.056-13.312q4.096 20.48 4.096 32.768 0 48.128-25.6 111.616t-59.392 95.232q-27.648 24.576-73.728 33.792-28.672 36.864-89.088 66.56t-108.544 30.72q-9.216 0-27.648-4.096t-24.576-4.096l-22.528-31.744 6.144-1.024q7.168 0 22.528 2.048t21.504 2.048q34.816 0 79.872-14.336-28.672-14.336-50.176-19.456-2.048-1.024-13.312-3.072t-18.432-3.072-14.336-6.144-7.168-11.264q57.344 6.144 86.016 6.144 38.912 0 61.44-7.168-78.848-9.216-120.832-54.272t-43.008-123.904q0-27.648 4.096-51.2 19.456-122.88 74.752-366.592 33.792-158.72 37.888-175.104l1.024-4.096q-163.84 51.2-257.024 190.464t-93.184 315.392zM289.792 477.952q0-6.144 3.072-12.288-1.024 16.384 18.432 28.672t36.864 12.288q8.192 0 20.48-5.12-10.24 13.312-29.696 13.312-17.408 0-32.768-10.24t-16.384-26.624zM323.584 401.152q0 13.312 11.264 23.552t23.552 11.264 24.576-11.264 10.24-23.552-10.24-24.576-24.576-10.24-23.552 10.24-11.264 24.576zM364.544 412.416q0-8.192 9.216-8.192t9.216 8.192q0 9.216-9.216 9.216t-9.216-9.216zM536.576 501.504q8.192 13.312 37.888 13.312 13.312 0 33.792-10.24-10.24 22.528-35.84 22.528-31.744 0-35.84-25.6zM560.128 421.632q0 12.288 9.216 20.48t20.48 9.216q12.288 0 21.504-9.216t8.192-20.48q0-11.264-8.192-20.48t-21.504-9.216q-11.264 0-20.48 9.216t-9.216 20.48zM595.968 431.872q0-8.192 7.168-8.192 8.192 0 8.192 8.192 0 7.168-8.192 7.168-7.168 0-7.168-7.168z" />
<glyph unicode="&#xe801;" glyph-name="aim" horiz-adv-x="1325" d="M0 435.968q0 107.52 54.272 192.512t139.264 135.168 185.344 74.752 198.656 25.6q29.696 0 44.032-1.024 117.76-6.144 231.424-41.984 89.088-28.672 169.984-75.776t150.528-111.616 110.592-150.528 40.96-180.224q0-13.312-1.024-19.456-11.264-155.648-122.88-262.144t-275.456-150.528q-109.568-30.72-234.496-30.72h-8.192q-205.824 0-322.56 54.272-6.144 2.048-7.168 6.144 0 2.048 3.072 2.048 1.024 0 4.096-1.024t3.072 0q51.2-12.288 91.136-12.288 24.576 0 48.128 4.096t45.056 20.48 20.48 40.96q0 12.288-6.144 24.576-9.216 16.384-59.392 34.816t-116.736 33.792-77.824 20.48q-81.92 26.624-142.336 67.584 0 1.024 4.096 10.24t6.144 14.336 7.168 12.288 8.192 6.144h183.296q9.216 0 17.408-21.504t21.504-45.056 35.84-22.528q18.432 0 31.744 12.288t13.312 29.696q0 11.264-86.016 203.776t-108.544 236.544q-6.144 15.36-16.384 15.36-8.192 0-13.312-9.216l-3.072-6.144q-8.192-15.36-53.248-116.736l-109.568-243.712-7.168-15.36q-97.28 111.616-97.28 239.616zM223.232 265.984q0 10.24 55.296 132.096l5.12 3.072q6.144 0 33.792-64.512t26.624-71.68q0-4.096-5.12-4.096h-110.592q-5.12 0-5.12 5.12zM537.6 140.032q0-46.080 48.128-46.080t48.128 46.080v397.312q0 46.080-48.128 46.080t-48.128-46.080v-397.312zM727.040 140.032q0-46.080 48.128-46.080t48.128 46.080v185.344l94.208-189.44q13.312-29.696 41.984-29.696 32.768 0 47.104 29.696l93.184 189.44v-185.344q0-46.080 48.128-46.080 49.152 0 49.152 46.080v397.312q0 46.080-48.128 46.080-35.84 0-48.128-29.696l-141.312-309.248-136.192 309.248q-14.336 29.696-49.152 29.696-47.104 0-47.104-46.080v-397.312z" />
<glyph unicode="&#xe802;" glyph-name="delicious" horiz-adv-x="1033" d="M0-160v513.024h513.024v-513.024h-513.024zM521.216 350.976v513.024h512v-513.024h-512z" />
<glyph unicode="&#xe803;" glyph-name="paypal" horiz-adv-x="997" d="M0-48.384l198.656 912.384h448.512q51.2 0 99.328-18.432t86.016-56.32 54.272-97.28-1.024-138.24q-29.696-139.264-131.072-219.136t-239.616-79.872h-187.392l-64.512-303.104h-263.168zM102.4-160h263.168l64.512 302.080h188.416q137.216 0 238.592 79.872t132.096 219.136q28.672 138.24-44.032 224.256 33.792-75.776 12.288-174.080-29.696-139.264-131.072-219.136t-239.616-79.872h-187.392l-64.512-302.080h-221.184zM365.568 428.8h84.992l43.008 187.392h128q2.048 0 17.408-3.072-8.192 29.696-31.744 48.128t-57.344 17.408h-128zM493.568 429.824q49.152 2.048 92.16 37.888t53.248 86.016q0 2.048 1.024 6.144t1.024 6.144h-116.736z" />
<glyph unicode="&#xe804;" glyph-name="flattr" horiz-adv-x="982" d="M0-44.288v526.336q0 183.296 87.040 284.672t265.216 101.376h561.152q-5.12-5.12-53.248-54.272t-102.4-103.424-111.616-111.616-97.28-95.232-43.008-37.888q-15.36 0-15.36 16.384v159.744h-49.152q-60.416 0-96.256-6.144t-64.512-26.624-39.936-58.368-12.288-98.304v-268.288zM68.608-164.096q5.12 5.12 54.272 54.272t102.4 103.424 111.616 112.64 97.28 95.232 41.984 36.864q15.36 0 15.36-16.384v-159.744h49.152q118.784 0 165.888 36.864t46.080 152.576v268.288l229.376 228.352v-526.336q0-183.296-86.016-284.672t-266.24-101.376h-561.152z" />
<glyph unicode="&#xe805;" glyph-name="android" horiz-adv-x="942" d="M0 199.424v275.456q0 26.624 19.456 46.080t45.056 18.432q26.624 0 46.080-18.432t18.432-46.080v-275.456q0-26.624-18.432-45.056t-46.080-19.456-45.056 19.456-19.456 45.056zM177.152 97.024v428.032h587.776v-428.032q0-26.624-18.432-45.056t-46.080-19.456h-458.752q-26.624 0-45.056 19.456t-19.456 45.056zM177.152 573.184h587.776q0 117.76-87.040 193.536t-206.848 75.776-206.848-75.776-87.040-193.536zM280.576 896.768q0 8.192 7.168 8.192 3.072 0 7.168-2.048l50.176-91.136-15.36-8.192q-49.152 90.112-49.152 93.184zM295.936 70.4q0 27.648 19.456 46.080t48.128 18.432q25.6 0 45.056-19.456t19.456-45.056v-206.848q0-28.672-19.456-47.104t-48.128-17.408q-26.624 0-45.056 18.432t-19.456 46.080v206.848zM301.056 705.28q0 16.384 12.288 28.672t28.672 11.264 28.672-11.264 11.264-28.672q0-17.408-11.264-28.672t-29.696-12.288q-16.384 0-27.648 12.288t-12.288 28.672zM514.048 70.4q0 27.648 20.48 46.080t47.104 18.432 46.080-18.432 18.432-46.080v-206.848q0-28.672-19.456-47.104t-48.128-17.408q-26.624 0-45.056 18.432t-19.456 46.080v206.848zM560.128 705.28q0 16.384 12.288 28.672t28.672 11.264 28.672-11.264 11.264-28.672q0-17.408-12.288-28.672t-28.672-12.288-27.648 12.288-12.288 28.672zM596.992 811.776q2.048 3.072 14.336 29.696t24.576 45.056 18.432 18.432 7.168-9.216v-2.048l-49.152-91.136zM813.056 199.424v274.432q0 26.624 19.456 46.080t45.056 19.456 46.080-19.456 18.432-46.080v-274.432q0-26.624-18.432-45.056t-46.080-19.456-46.080 19.456-18.432 45.056z" />
<glyph unicode="&#xe806;" glyph-name="eventful" horiz-adv-x="844" d="M0 353.024q0 109.568 29.696 206.848 28.672 94.208 84.992 162.816 57.344 68.608 138.24 104.448 82.944 36.864 182.272 36.864 131.072 0 222.208-62.464 92.16-60.416 139.264-160.768 47.104-97.28 47.104-200.704 0-95.232-48.128-122.88t-135.168-27.648h-433.152q0-87.040 30.72-151.552 29.696-66.56 77.824-98.304 51.2-33.792 108.544-33.792 41.984 0 72.704 10.24 31.744 10.24 63.488 33.792 31.744 22.528 57.344 48.128t67.584 70.656q15.36 16.384 48.128 16.384 34.816 0 55.296-21.504 21.504-21.504 21.504-59.392 0-32.768-23.552-79.872-21.504-44.032-71.68-87.040-47.104-41.984-118.784-69.632-72.704-27.648-164.864-27.648-214.016 0-332.8 138.24-118.784 139.264-118.784 374.784zM227.328 432.896h401.408q-7.168 128-61.44 192.512-52.224 63.488-139.264 63.488-83.968 0-136.192-64.512-53.248-64.512-64.512-191.488z" />
<glyph unicode="&#xe807;" glyph-name="smashmag" d="M0 620.288q0 25.6 16.384 47.104t41.984 26.624l201.728 48.128q-64.512-73.728-64.512-172.032 0-189.44 259.072-289.792 28.672-11.264 55.296-24.576t56.32-34.816 47.104-47.104 17.408-57.344q0-44.032-35.84-68.608t-81.92-24.576q-59.392 0-123.904 23.552t-107.52 61.44l-80.896-183.296q57.344-31.744 147.456-62.464-10.24-2.048-31.744-9.216t-39.936-10.24-32.768-3.072q-25.6 0-46.080 16.384t-27.648 41.984l-167.936 703.488q-2.048 12.288-2.048 18.432zM429.056 573.184q0 38.912 35.84 60.416t77.824 20.48q50.176 0 112.64-17.408t90.112-48.128l62.464 174.080q-92.16 49.152-190.464 64.512 2.048 0 46.080 12.288t73.728 18.432 43.008 6.144q25.6 0 47.104-16.384t26.624-41.984l167.936-703.488q2.048-12.288 2.048-18.432 0-25.6-16.384-46.080t-41.984-27.648l-148.48-34.816q48.128 71.68 48.128 155.648 0 113.664-71.68 187.392t-189.44 111.616q-175.104 59.392-175.104 143.36z" />
<glyph unicode="&#xe808;" glyph-name="gplus" horiz-adv-x="1212" d="M0 26.368q0 89.088 91.136 158.72t220.16 69.632h55.296q-43.008 40.96-43.008 88.064 0 29.696 16.384 59.392-10.24-1.024-29.696-1.024-106.496 0-174.080 66.56t-67.584 163.84q0 93.184 83.968 162.816t191.488 69.632h317.44l-70.656-51.2h-100.352q48.128-18.432 75.776-69.632t26.624-113.664q0-95.232-90.112-165.888-37.888-29.696-49.152-47.104t-11.264-43.008q0-19.456 27.648-49.152t55.296-50.176q62.464-44.032 87.040-90.112t23.552-115.712q0-92.16-83.968-160.768t-227.328-67.584q-136.192 0-230.4 51.2t-94.208 135.168zM114.688 60.16q0-70.656 60.416-120.832t148.48-49.152q121.856 0 177.152 45.056t54.272 119.808q0 19.456-4.096 32.768-3.072 11.264-7.168 21.504t-12.288 19.456-14.336 16.384-19.456 16.384-21.504 15.36-25.6 18.432-26.624 17.408q-39.936 12.288-78.848 12.288-92.16 1.024-160.768-48.128t-69.632-116.736zM182.272 632.576q11.264-80.896 62.464-139.264t111.616-59.392q60.416-2.048 96.256 53.248t25.6 136.192-60.416 137.216-112.64 58.368-97.28-52.224-25.6-134.144zM750.592 608v51.2h204.8v204.8h51.2v-204.8h205.824v-51.2h-205.824v-205.824h-51.2v205.824h-204.8z" />
<glyph unicode="&#xe809;" glyph-name="wikipedia" horiz-adv-x="1133" d="M0 686.848v21.504l2.048 2.048h254.976l2.048-2.048v-20.48q0-8.192-10.24-8.192l-26.624-1.024q-33.792-1.024-33.792-20.48 0-13.312 7.168-28.672 51.2-124.928 227.328-495.616l6.144-1.024 113.664 226.304q-13.312 30.72-22.528 50.176l-77.824 153.6-20.48 40.96q-26.624 52.224-34.816 62.464t-33.792 13.312q-14.336 2.048-14.336 7.168v21.504l3.072 2.048h201.728l5.12-1.024v-21.504q0-8.192-10.24-8.192l-15.36-2.048q-13.312-2.048-19.456-5.12t-5.12-12.288 4.096-17.408 14.336-31.744l74.752-153.6 82.944 165.888q16.384 32.768 5.12 44.032-6.144 8.192-37.888 11.264l-9.216 1.024q-4.096 0-7.168 3.072-3.072 1.024-3.072 6.144v19.456l3.072 2.048q58.368 1.024 190.464 0l2.048-2.048v-20.48q0-8.192-9.216-8.192-22.528-1.024-30.72-4.096t-17.408-16.384q-23.552-34.816-30.72-49.152l-107.52-200.704-3.072-7.168 131.072-268.288 8.192-3.072 206.848 492.544q12.288 28.672-3.072 41.984-13.312 12.288-39.936 13.312l-19.456 1.024q-3.072 0-6.144 3.072-4.096 2.048-4.096 6.144v20.48l3.072 2.048h234.496l2.048-2.048v-20.48q0-7.168-9.216-9.216-47.104-2.048-67.584-19.456-20.48-16.384-34.816-50.176l-256-580.608q-10.24-23.552-22.528-30.72t-24.576 1.024-23.552 30.72q-38.912 76.8-124.928 269.312-107.52-221.184-134.144-270.336-41.984-72.704-72.704-1.024-32.768 76.8-133.12 291.84t-133.12 292.864q-16.384 43.008-28.672 53.248-11.264 10.24-53.248 13.312-14.336 2.048-14.336 7.168z" />
<glyph unicode="&#xe80a;" glyph-name="lanyrd" horiz-adv-x="963" d="M0 750.336q-1.024 11.264 6.144 20.48t14.336 17.408 23.552 15.36 27.648 13.312 33.792 14.336 35.84 15.36q55.296 22.528 99.328 16.384t55.296-35.84q25.6-68.608 104.448-327.68t118.784-369.664q274.432 90.112 333.824 107.52 16.384 6.144 37.888 4.096t33.792-23.552q23.552-48.128 32.768-101.376t1.024-75.776q-19.456-15.36-61.44-32.768t-76.8-29.696-92.16-29.696-74.752-23.552q-10.24-3.072-38.912-13.312t-54.272-19.456-59.392-19.456-62.464-17.408-55.296-12.288-46.080-3.072-25.6 9.216q-18.432 18.432-32.768 53.248t-29.696 89.088-19.456 67.584q-43.008 128-115.712 346.112t-106.496 320.512q-6.144 13.312-7.168 24.576z" />
<glyph unicode="&#xe80b;" glyph-name="calendar" horiz-adv-x="795" d="M0-110.848v793.6h94.208q0 29.696 1.024 39.936t4.096 32.768 11.264 30.72 25.6 16.384 40.96 8.192 41.984-8.192 24.576-16.384 11.264-30.72 4.096-32.768v-39.936h56.32v39.936t4.096 32.768 12.288 30.72 24.576 16.384 40.96 8.192q18.432 0 31.744-4.096t22.528-8.192 14.336-17.408 9.216-19.456 4.096-24.576 1.024-25.6v-28.672h55.296v28.672t2.048 25.6 4.096 24.576 8.192 19.456 15.36 17.408 21.504 8.192 31.744 4.096q24.576 0 41.984-8.192t24.576-16.384 11.264-30.72 4.096-32.768v-39.936h94.208v-793.6h-794.624zM66.56 70.4v-114.688h142.336v114.688h-142.336zM66.56 92.928h142.336v121.856h-142.336v-121.856zM66.56 237.312h142.336v133.12h-142.336v-133.12zM66.56 391.936h142.336v114.688h-142.336v-114.688zM139.264 599.808q0-33.792 37.888-33.792t37.888 33.792v133.12q0 33.792-37.888 33.792t-37.888-33.792v-133.12zM230.4 70.4v-114.688h155.648v114.688h-155.648zM230.4 92.928h155.648v121.856h-155.648v-121.856zM230.4 237.312h155.648v133.12h-155.648v-133.12zM230.4 391.936h155.648v114.688h-155.648v-114.688zM359.424 599.808q0-33.792 37.888-33.792 38.912 0 38.912 33.792v133.12q0 33.792-38.912 33.792-37.888 0-37.888-33.792v-133.12zM407.552 70.4v-114.688h155.648v114.688h-155.648zM407.552 92.928h155.648v121.856h-155.648v-121.856zM407.552 237.312h155.648v133.12h-155.648v-133.12zM407.552 391.936h155.648v114.688h-155.648v-114.688zM579.584 599.808q0-33.792 38.912-33.792 37.888 0 37.888 33.792v133.12q0 33.792-37.888 33.792-38.912 0-38.912-33.792v-133.12zM584.704 70.4v-114.688h143.36v114.688h-143.36zM584.704 92.928h143.36v121.856h-143.36v-121.856zM584.704 237.312h143.36v133.12h-143.36v-133.12zM584.704 391.936h143.36v114.688h-143.36v-114.688z" />
<glyph unicode="&#xe80c;" glyph-name="stumbleupon" horiz-adv-x="1340" d="M0 140.032v185.344h229.376v-183.296q0-28.672 20.48-49.152t50.176-21.504 51.2 20.48 20.48 50.176v433.152q0 119.808 89.088 204.8t209.92 83.968 210.944-84.992 88.064-205.824v-94.208l-137.216-40.96-91.136 43.008v81.92q0 29.696-20.48 50.176t-50.176 20.48-50.176-20.48-21.504-50.176v-427.008q0-122.88-88.064-209.92t-210.944-86.016q-123.904 0-211.968 87.040t-88.064 212.992zM741.376 136.96v187.392l91.136-43.008 137.216 40.96v-188.416q0-29.696 20.48-50.176t50.176-21.504 50.176 21.504 20.48 50.176v191.488h229.376v-185.344q0-123.904-87.040-211.968t-211.968-88.064-211.968 87.040-88.064 209.92z" />
<glyph unicode="&#xe80d;" glyph-name="fivehundredpx" horiz-adv-x="1292" d="M0 235.264h121.856q5.12-40.96 30.72-65.536t65.536-24.576q49.152 0 78.848 33.792t28.672 82.944q0 49.152-28.672 80.896t-76.8 31.744q-38.912 0-66.56-24.576t-52.224-25.6q-54.272 0-81.92 2.048 9.216 53.248 29.696 164.864t28.672 167.936h337.92v-100.352h-248.832q-14.336-72.704-24.576-137.216h3.072q17.408 21.504 52.224 32.768t66.56 11.264q115.712 0 163.84-105.472 24.576 61.44 73.728 96.256t113.664 34.816q50.176 0 93.184-19.456t67.584-43.008 64.512-67.584q3.072-3.072 5.12-5.12t4.096-4.096l4.096-5.12q35.84 40.96 51.2 57.344t47.104 40.96 63.488 35.84 71.68 9.216q92.16 0 148.48-61.44t56.32-155.648q0-95.232-56.32-159.744t-150.528-64.512q-118.784 0-231.424 134.144-7.168-7.168-39.936-38.912t-43.008-40.96-37.888-25.6-53.248-23.552-59.392-6.144q-64.512 0-113.664 33.792t-75.776 94.208q-63.488-131.072-207.872-131.072-97.28 0-159.744 49.152t-63.488 141.312zM527.36 265.984q0-43.008 26.624-69.632t68.608-26.624q76.8 0 158.72 97.28-34.816 35.84-49.152 50.176t-48.128 33.792-65.536 19.456q-39.936 0-65.536-31.744t-25.6-72.704zM925.696 265.984q27.648-29.696 47.104-46.080t50.176-33.792 62.464-16.384q44.032 0 69.632 28.672t24.576 71.68q0 43.008-25.6 71.68t-69.632 28.672q-25.6 0-50.176-11.264t-36.864-22.528-38.912-36.864-32.768-33.792z" />
<glyph unicode="&#xe80e;" glyph-name="pinterest" horiz-adv-x="793" d="M0 496.384q0 64.512 27.648 128t77.824 117.76 133.12 88.064 182.272 33.792q162.816 0 267.264-100.352t104.448-236.544q0-175.104-88.064-288.768t-229.376-114.688q-46.080 0-86.016 21.504t-57.344 52.224l-40.96-161.792q-5.12-19.456-13.312-38.912t-17.408-38.912-19.456-34.816-19.456-30.72-17.408-24.576-13.312-16.384l-6.144-8.192q-3.072-4.096-8.192-3.072t-6.144 6.144q0 1.024-1.024 14.336t-3.072 27.648-3.072 38.912-1.024 45.056 3.072 49.152 7.168 49.152q11.264 48.128 75.776 320.512-8.192 16.384-13.312 39.936t-5.12 36.864l-1.024 15.36q0 65.536 33.792 109.568t79.872 43.008q37.888 0 59.392-24.576t20.48-63.488q0-23.552-8.192-57.344t-23.552-78.848-20.48-72.704q-10.24-46.080 18.432-79.872t74.752-33.792q80.896 0 134.144 92.16t52.224 221.184q0 99.328-64.512 162.816t-180.224 62.464q-129.024 0-208.896-82.944t-80.896-198.656q0-68.608 38.912-115.712 13.312-15.36 8.192-32.768-2.048-5.12-6.144-23.552t-6.144-23.552q-2.048-11.264-10.24-14.336t-18.432 0q-60.416 24.576-90.112 84.992t-30.72 139.264z" />
<glyph unicode="&#xe80f;" glyph-name="bitcoin" horiz-adv-x="1025" d="M16.384 475.904q33.792 135.168 128 232.448t226.304 136.192 266.24 4.096 232.448-129.024 136.192-225.28 4.096-266.24-129.024-233.472-225.28-135.168-266.24-4.096-233.472 128-135.168 226.304-4.096 266.24zM249.856 198.4l73.728-18.432q7.168-1.024 20.48-5.12t19.456-5.12l-23.552-93.184 56.32-14.336 22.528 92.16q6.144-2.048 21.504-6.144t23.552-5.12l-22.528-92.16 56.32-13.312 22.528 93.184q49.152-8.192 87.040-8.192t67.584 21.504 44.032 62.464q32.768 92.16-52.224 136.192 61.44 13.312 71.68 81.92 13.312 88.064-112.64 129.024l23.552 93.184-56.32 13.312-22.528-90.112q-8.192 2.048-23.552 5.12t-21.504 6.144l22.528 90.112-56.32 14.336-22.528-92.16q-15.36 2.048-35.84 8.192l-77.824 19.456-14.336-60.416 39.936-9.216q28.672-7.168 26.624-32.768l-26.624-105.472q2.048 0 6.144-2.048-1.024 1.024-3.072 1.024t-3.072 1.024l-36.864-147.456q-5.12-18.432-25.6-13.312l-40.96 10.24zM437.248 221.952l30.72 123.904q1.024 0 19.456-4.096t28.672-7.168 28.672-9.216 29.696-13.312 21.504-17.408 14.336-22.528 0-27.648q-3.072-11.264-9.216-19.456t-15.36-12.288-19.456-7.168-23.552-3.072-23.552 2.048-24.576 4.096-22.528 4.096-19.456 5.12-15.36 4.096zM482.304 402.176l27.648 112.64q3.072-1.024 12.288-3.072t17.408-4.096 18.432-5.12 19.456-6.144 18.432-9.216 15.36-11.264 11.264-13.312 6.144-17.408-1.024-19.456q-3.072-13.312-11.264-22.528t-19.456-11.264-22.528-5.12-27.648 1.024-24.576 4.096-23.552 6.144-16.384 4.096z" />
<glyph unicode="&#xe810;" glyph-name="w3c" horiz-adv-x="1152" d="M0 656.128h78.848l109.568-371.712 73.728 249.856-35.84 121.856h78.848l109.568-371.712 109.568 371.712h296.96v-36.864l-111.616-192.512q59.392-20.48 88.064-68.608 30.72-51.2 30.72-116.736 0-83.968-44.032-140.288t-114.688-56.32q-52.224 0-92.16 33.792-39.936 34.816-57.344 91.136l61.44 25.6q13.312-34.816 35.84-55.296 20.48-19.456 52.224-19.456t53.248 34.816q22.528 34.816 22.528 86.016 0 53.248-23.552 84.992-27.648 34.816-84.992 34.816h-30.72v36.864l105.472 182.272h-126.976l-7.168-12.288-155.648-523.264h-7.168l-112.64 378.88-113.664-378.88h-7.168zM837.632 229.12l18.432-51.2q15.36-33.792 33.792-59.392 43.008-59.392 96.256-68.608 46.080-9.216 90.112 18.432 19.456 12.288 35.84 31.744 20.48 20.48 28.672 36.864 4.096 7.168 11.264 20.48l-11.264 60.416q-8.192-16.384-16.384-28.672t-12.288-17.408l-4.096-4.096q-34.816-37.888-62.464-50.176-33.792-15.36-69.632-11.264-27.648 2.048-61.44 24.576-36.864 31.744-44.032 44.032-13.312 18.432-32.768 54.272zM865.28 428.8q0 86.016 33.792 149.504 16.384 30.72 38.912 49.152t43.008 20.48q35.84 4.096 71.68-26.624 18.432-15.36 37.888-51.2l45.056 89.088 12.288-77.824-45.056-87.040q-8.192 16.384-19.456 30.72t-18.432 20.48l-8.192 6.144q-31.744 22.528-65.536 15.36-24.576-5.12-48.128-30.72t-35.84-60.416q-19.456-56.32-19.456-108.544-1.024-40.96 5.12-64.512-12.288 22.528-19.456 54.272t-7.168 52.224z" />
<glyph unicode="&#xe811;" glyph-name="foursquare" horiz-adv-x="1197" d="M0 413.44q0 107.52 78.848 184.32t188.416 75.776q87.040 0 156.672-49.152t96.256-126.976l67.584 65.536 161.792-155.648 447.488 456.704v-414.72l-273.408-210.944 34.816-36.864-371.712-361.472-323.584 314.368q-109.568 2.048-186.368 77.824t-76.8 181.248zM37.888 413.44q0-92.16 66.56-156.672t160.768-64.512q33.792 0 66.56 9.216l225.28-199.68 599.040 471.040 1.024 309.248-591.872-610.304-92.16 149.504q20.48 44.032 20.48 92.16 0 91.136-66.56 156.672t-161.792 64.512-160.768-64.512-66.56-156.672zM87.040 411.392q0 71.68 51.2 122.88t121.856 50.176 122.88-50.176 50.176-122.88q0-71.68-50.176-121.856t-122.88-51.2-121.856 51.2-51.2 121.856z" />
<glyph unicode="&#xe812;" glyph-name="html5" horiz-adv-x="716" d="M0 658.176h715.776l-67.584-727.040-290.816-82.944-290.816 82.944zM66.56 719.616v136.192h46.080v-45.056h40.96v45.056h45.056v-136.192h-45.056v45.056h-40.96v-45.056h-46.080zM133.12 509.696l24.576-272.384 1.024 2.048h307.2l-10.24-115.712-98.304-27.648-99.328 28.672-6.144 69.632h-90.112l12.288-139.264 183.296-52.224 183.296 52.224 25.6 273.408h-326.656l-8.192 91.136h343.040l8.192 90.112h-449.536zM219.136 809.728v46.080h124.928v-46.080h-39.936v-90.112h-45.056v90.112h-39.936zM363.52 719.616v136.192h48.128l27.648-47.104 28.672 47.104h48.128v-136.192h-44.032v69.632l-32.768-51.2v1.024l-30.72 48.128v-67.584h-45.056zM539.648 719.616v136.192h45.056v-90.112h63.488v-46.080h-108.544z" />
<glyph unicode="&#xe813;" glyph-name="ie" horiz-adv-x="966" d="M1.024-8.448q-3.072 35.84 7.168 60.416 39.936 143.36 94.208 244.736 116.736 221.184 320.512 360.448v14.336q-60.416-25.6-121.856-66.56t-104.448-82.944-77.824-79.872-51.2-61.44l-17.408-23.552q-2.048 60.416 16.384 117.76t46.080 96.256 55.296 68.608 48.128 44.032l19.456 13.312q4.096 2.048 10.24 6.144t28.672 13.312 44.032 19.456 56.32 17.408 65.536 12.288 71.68 2.048 75.776-12.288q65.536 48.128 131.072 74.752t100.352 29.696l33.792 3.072q51.2 5.12 78.848-16.384t31.744-56.32 0-69.632-12.288-61.44l-9.216-24.576-5.12 5.12q21.504 58.368 20.48 96.256t-17.408 57.344-37.888 29.696-36.864 10.24l-16.384 2.048q-4.096 0-12.288 0t-32.768-5.12-50.176-13.312-61.44-25.6-70.656-41.984q70.656-11.264 125.952-43.008t88.064-71.68 55.296-87.040 31.744-91.136 13.312-79.872 4.096-57.344l-1.024-22.528h-570.368q-3.072-43.008 10.24-74.752t34.816-46.080 41.984-23.552 36.864-9.216l15.36-1.024q4.096 0 11.264 1.024t27.648 5.12 34.816 14.336 31.744 29.696 22.528 47.104h299.008q-16.384-60.416-48.128-109.568t-69.632-78.848-79.872-52.224-80.896-32.768-69.632-16.384-49.152-7.168h-19.456q-79.872 0-109.568 6.144-61.44-48.128-130.048-74.752t-105.472-30.72l-36.864-3.072q-47.104 0-79.872 24.576t-41.984 57.344-13.312 69.632zM77.824-3.328q0-24.576 3.072-43.008t8.192-29.696l4.096-9.216q4.096-3.072 11.264-8.192t33.792-13.312 58.368-8.192 83.968 16.384 110.592 51.2q-8.192 2.048-22.528 6.144t-51.2 18.432-70.656 31.744-68.608 49.152-54.272 65.536q-22.528-34.816-33.792-68.608t-12.288-58.368zM367.616 430.848h271.36q1.024 36.864-12.288 64.512t-32.768 39.936-38.912 19.456-33.792 8.192l-14.336 1.024q-6.144 0-15.36-1.024t-33.792-8.192-43.008-19.456-33.792-39.936-13.312-64.512z" />
<glyph unicode="&#xe814;" glyph-name="call" horiz-adv-x="819" d="M2.048 600.832q2.048 17.408 15.36 32.768l122.88 122.88q14.336 12.288 21.504-4.096l99.328-186.368q8.192-16.384-5.12-31.744l-45.056-45.056q-12.288-12.288-14.336-31.744 0-30.72 31.744-78.848t62.464-81.92l31.744-32.768q14.336-14.336 36.864-34.816t73.728-55.296 81.92-34.816q19.456 0 32.768 13.312l53.248 53.248q14.336 14.336 30.72 4.096l179.2-105.472q7.168-4.096 8.192-10.24t-4.096-12.288l-122.88-122.88q-15.36-13.312-32.768-15.36-50.176-7.168-113.664 14.336t-116.736 55.296-99.328 70.656-73.728 61.44l-26.624 25.6q-10.24 10.24-27.648 28.672t-58.368 70.656-72.704 102.4-53.248 114.688-15.36 113.664z" />
<glyph unicode="&#xe815;" glyph-name="grooveshark" d="M0 352q0 139.264 68.608 257.024t186.368 186.368 257.024 68.608 257.024-68.608 186.368-186.368 68.608-257.024-68.608-257.024-186.368-186.368-257.024-68.608-257.024 68.608-186.368 186.368-68.608 257.024zM132.096 352q0-66.56 36.864-78.848 5.12-2.048 17.408-4.096 43.008-1.024 87.040 40.96 41.984 36.864 59.392 92.16 25.6 78.848 10.24 204.8-2.048 12.288-2.048 17.408-3.072 6.144 0 9.216 1.024 3.072 13.312-1.024 38.912-10.24 79.872-29.696 47.104-21.504 104.448-71.68 46.080-39.936 89.088-91.136 33.792-39.936 81.92-106.496 41.984-58.368 90.112-78.848 29.696-10.24 49.152-7.168t29.696 20.48 15.36 37.888 4.096 46.080q0 49.152-12.288 98.304-3.072 12.288-8.192 28.672-14.336 44.032-41.984 86.016-53.248 80.896-138.24 126.976t-182.272 46.080q-67.584 0-128-22.528-81.92-28.672-143.36-91.136t-91.136-145.408q-1.024-5.12-4.096-14.336t-5.12-14.336q-12.288-51.2-11.264-98.304z" />
<glyph unicode="&#xe816;" glyph-name="ninetyninedesigns" horiz-adv-x="1249" d="M0 720.64q-1.024 5.12 3.072 10.24t8.192 5.12q11.264 2.048 31.744 7.168t28.672 6.144q0 17.408 1.024 51.2t1.024 49.152q2.048 12.288 13.312 12.288 14.336 0 14.336-14.336-2.048-61.44-2.048-93.184 11.264 2.048 35.84 7.168t35.84 8.192q18.432 4.096 56.32 10.24t57.344 10.24q411.648 70.656 813.056 73.728 6.144 0 10.24-4.096t2.048-11.264q0-11.264-2.048-33.792t-2.048-33.792q43.008-3.072 131.072-11.264 5.12 0 9.216-4.096t3.072-10.24q-23.552-140.288-69.632-421.888t-69.632-422.912q51.2-8.192 77.824-12.288 8.192-1.024 11.264-8.192t-1.024-13.312-10.24-6.144h-3.072q-13.312 2.048-39.936 6.144t-39.936 7.168q-1.024-12.288-5.12-31.744-2.048-9.216-10.24-11.264-1.024-1.024-4.096-1.024h-4.096q-304.128 76.8-614.4 119.808-102.4 2.048-152.576 2.048-56.32 0-168.96-2.048v-1.024q1.024-1.024 1.024-2.048 1.024-6.144-4.096-11.264t-11.264-4.096q-11.264 0-12.288 11.264 0 5.12-1.024 15.36t-3.072 17.408h-13.312q-8.192 0-10.24 7.168t1.024 14.336 11.264 6.144h8.192l-6.144 55.296q-6.144 40.96-25.6 199.68t-35.84 257.024-44.032 195.584zM30.72 712.448q21.504-79.872 44.032-205.824-3.072 71.68-3.072 214.016-16.384-2.048-40.96-8.192zM99.328 619.264q1.024-197.632 21.504-434.176 3.072-40.96 11.264-111.616 1.024-9.216 3.072-19.456t3.072-22.528 3.072-19.456q68.608-3.072 196.608-13.312t186.368-13.312q362.496-20.48 494.592-35.84 11.264 163.84 33.792 465.92t29.696 420.864q-479.232-4.096-983.040-109.568-1.024-54.272 0-107.52zM193.536 452.352q0-69.632 44.032-113.664t110.592-44.032q70.656 0 111.616 44.032h2.048q-13.312-71.68-66.56-113.664-41.984-33.792-103.424-38.912-40.96-4.096-53.248-2.048v-76.8q35.84 0 58.368 2.048 109.568 8.192 175.104 69.632 89.088 83.968 89.088 238.592 0 96.256-48.128 157.696t-135.168 60.416q-79.872 0-132.096-54.272t-52.224-129.024zM289.792 458.496q0 46.080 23.552 75.776t59.392 28.672h1.024q44.032 0 66.56-35.84t21.504-93.184q0-16.384-5.12-26.624-26.624-43.008-82.944-43.008-38.912 0-61.44 26.624t-22.528 67.584zM380.928-29.952l98.304-10.24 381.952-40.96q143.36-30.72 214.016-49.152l3.072 18.432q-56.32 9.216-168.96 25.6-254.976 35.84-528.384 56.32zM577.536 452.352q0-69.632 44.032-113.664t110.592-44.032q70.656 0 112.64 44.032h1.024q-13.312-71.68-65.536-113.664-43.008-33.792-104.448-38.912-40.96-4.096-53.248-2.048v-76.8q35.84 0 58.368 2.048 109.568 8.192 175.104 69.632 89.088 81.92 89.088 238.592 0 96.256-48.128 157.696t-134.144 60.416q-79.872 0-132.096-54.272t-53.248-129.024zM673.792 458.496q0 46.080 23.552 75.776t59.392 28.672h1.024q44.032 0 66.56-35.84t21.504-93.184q0-16.384-5.12-26.624-26.624-43.008-82.944-43.008-38.912 0-61.44 26.624t-22.528 67.584zM1039.36-78.080q28.672-4.096 44.032-6.144 20.48 122.88 66.56 401.408t69.632 427.008q-13.312 1.024-35.84 3.072t-43.008 4.096-36.864 2.048q-6.144-87.040-27.648-374.784t-31.744-446.464q0-5.12-4.096-9.216-1.024 0-1.024-1.024z" />
<glyph unicode="&#xe817;" glyph-name="forrst" horiz-adv-x="854" d="M0-160l427.008 1024 427.008-1024h-377.856v138.24l174.080 87.040-13.312 56.32-160.768-80.896v68.608l100.352 53.248-14.336 58.368-86.016-46.080v89.088h-94.208v-160.768l-88.064 60.416-16.384-65.536 104.448-71.68v-186.368h-381.952z" />
<glyph unicode="&#xe818;" glyph-name="digg" horiz-adv-x="1149" d="M0 149.248v380.928q0 13.312 13.312 13.312h180.224v132.096q0 14.336 13.312 14.336h100.352v-526.336q0-14.336-12.288-14.336h-294.912zM111.616 234.24h68.608q13.312 0 13.312 14.336v210.944h-68.608q-13.312 0-13.312-14.336v-210.944zM342.016 149.248v380.928q0 13.312 13.312 13.312h100.352v-379.904q0-14.336-12.288-14.336h-101.376zM342.016 604.928v70.656q0 14.336 12.288 14.336h101.376v-70.656q0-14.336-12.288-14.336h-101.376zM494.592 149.248v380.928q0 13.312 13.312 13.312h294.912v-516.096q0-13.312-13.312-13.312h-294.912l1.024 70.656q0 14.336 12.288 14.336h180.224v50.176h-193.536zM607.232 234.24h68.608q12.288 0 12.288 14.336v210.944h-68.608q-12.288 0-12.288-14.336v-210.944zM841.728 84.736q0 14.336 13.312 14.336h180.224v50.176h-193.536v380.928q0 13.312 13.312 13.312h293.888v-516.096q0-13.312-12.288-13.312h-294.912v70.656zM953.344 234.24h68.608q13.312 0 13.312 14.336v210.944h-68.608q-13.312 0-13.312-14.336v-210.944z" />
<glyph unicode="&#xe819;" glyph-name="spotify" d="M0 352q0 139.264 68.608 257.024t186.368 186.368 257.024 68.608 257.024-68.608 186.368-186.368 68.608-257.024q0-103.424-38.912-196.608t-109.568-163.84q-61.44 74.752-148.48 116.736t-187.392 41.984q-109.568 0-203.776-50.176t-154.624-138.24q-84.992 72.704-133.12 174.080t-48.128 216.064zM167.936 499.456q0-17.408 12.288-29.696t30.72-13.312q6.144 0 9.216 1.024 147.456 59.392 305.152 59.392t305.152-59.392q1.024 0 4.096 0t5.12-1.024q17.408 0 30.72 13.312t12.288 29.696q0 25.6-23.552 37.888-162.816 64.512-333.824 64.512-174.080 0-336.896-65.536-20.48-13.312-20.48-36.864zM215.040 346.88l6.144-16.384q8.192-13.312 23.552-13.312 3.072 0 9.216 2.048 130.048 56.32 271.36 56.32 142.336 0 273.408-57.344 4.096-2.048 7.168-2.048 15.36 0 23.552 13.312l5.12 17.408q0 13.312-10.24 21.504-141.312 63.488-299.008 63.488-156.672 0-300.032-63.488-10.24-10.24-10.24-21.504zM264.192 199.424q10.24-25.6 31.744-16.384 110.592 52.224 229.376 52.224 114.688 0 224.256-49.152 24.576-13.312 35.84 12.288 5.12 13.312 0 23.552t-14.336 15.36q-108.544 54.272-245.76 54.272-131.072 0-249.856-56.32-19.456-10.24-11.264-35.84zM326.656-125.184q37.888 49.152 94.208 77.824t118.784 28.672q116.736 0 197.632-88.064-106.496-53.248-225.28-53.248-96.256 0-185.344 34.816z" />
<glyph unicode="&#xe81a;" glyph-name="reddit" horiz-adv-x="1234" d="M0 355.072q0 63.488 51.2 108.544t114.688 45.056 107.52-36.864h5.12q137.216 83.968 343.040 83.968l5.12 4.096 71.68 273.408 247.808-36.864q0-1.024 2.048-1.024 1.024 0 0 1.024 2.048 1.024 12.288 16.384t14.336 18.432q34.816 32.768 83.968 32.768 50.176 0 84.992-32.768t33.792-83.968-33.792-86.016-84.992-35.84q-58.368 0-89.088 39.936t-30.72 98.304q-2.048-1.024-99.328 13.312t-112.64 17.408h-3.072q-2.048-2.048-16.384-54.272t-30.72-111.616-18.432-65.536v-3.072l5.12-4.096q73.728 0 151.552-20.48t133.12-59.392l3.072-2.048q1.024 1.024 2.048 1.024t2.048 1.024q25.6 18.432 36.864 25.6t29.696 13.312 44.032 6.144q69.632 0 118.784-49.152t49.152-119.808q0-48.128-26.624-88.064t-71.68-61.44q0-199.68-266.24-310.272-41.984-18.432-57.344-23.552-32.768-10.24-93.184-19.456t-95.232-9.216q-122.88 0-236.544 35.84-2.048 2.048-73.728 38.912-97.28 52.224-155.648 118.784t-59.392 159.744h-5.12q-33.792 17.408-60.416 51.2l-9.216 12.288q-15.36 27.648-19.456 47.104t-4.096 51.2zM34.816 342.784q0-67.584 58.368-114.688 5.12 60.416 49.152 118.784t103.424 103.424q-37.888 26.624-83.968 26.624-50.176 0-88.064-40.96t-38.912-93.184zM139.264 193.28q0-55.296 31.744-106.496t81.92-87.040 104.448-61.44 107.52-34.816q76.8-14.336 149.504-14.336 125.952 0 238.592 39.936t189.44 125.952h-3.072q30.72 38.912 44.032 70.656t13.312 73.728q0 55.296-26.624 105.472t-71.68 86.016-94.208 62.464-102.4 38.912q-87.040 23.552-185.344 23.552-75.776 0-154.624-18.432t-153.6-55.296-121.856-101.376-47.104-147.456zM329.728 268.032q0 37.888 23.552 61.44t60.416 22.528 63.488-22.528 25.6-61.44q0-36.864-25.6-61.44t-63.488-24.576-60.416 24.576-23.552 61.44zM366.592 100.096h45.056q25.6-46.080 81.92-69.632t113.664-24.576q59.392 0 112.64 24.576t86.016 69.632h41.984q-25.6-63.488-95.232-98.304t-145.408-34.816q-73.728 0-144.384 35.84t-96.256 97.28zM710.656 268.032q0 38.912 23.552 61.44t62.464 22.528q34.816 0 59.392-24.576t24.576-59.392-24.576-60.416-59.392-25.6q-37.888 0-61.44 24.576t-24.576 61.44zM971.776 747.264q0-35.84 25.6-61.44t61.44-25.6q36.864 0 60.416 25.6t23.552 61.44q0 34.816-24.576 59.392t-59.392 24.576-60.416-24.576-26.624-59.392zM986.112 459.52q56.32-36.864 97.28-94.208t57.344-122.88q60.416 44.032 60.416 98.304 0 59.392-35.84 102.4t-95.232 43.008q-46.080 0-83.968-26.624z" />
<glyph unicode="&#xe81b;" glyph-name="guest" horiz-adv-x="778" d="M0 104.192q0 22.528 12.288 65.536 23.552 89.088 89.088 161.792t150.528 105.472q-80.896 64.512-80.896 164.864 0 88.064 64.512 149.504t151.552 61.44 152.576-61.44 63.488-149.504q0-99.328-78.848-163.84 108.544-38.912 181.248-130.048t72.704-202.752q0-94.208-74.752-108.544-3.072-10.24-13.312-26.624-6.144-16.384-23.552-29.696t-50.176-20.48-50.176-12.288-58.368-9.216-39.936-5.12q-2.048 0-7.168-1.024t-7.168-1.024h-122.88q-52.224 0-132.096 16.384t-91.136 46.080q-17.408 17.408-25.6 43.008-25.6 5.12-43.008 21.504-38.912 15.36-38.912 86.016z" />
<glyph unicode="&#xe81c;" glyph-name="gowalla" horiz-adv-x="782" d="M0 339.712v105.472q0 89.088 88.064 204.8t175.104 163.84q79.872 45.056 191.488 45.056 45.056 0 91.136-10.24t87.040-31.744 68.608-59.392 25.6-87.040q0-13.312-2.048-24.576t-7.168-24.576-9.216-21.504-14.336-21.504-14.336-19.456-17.408-19.456-17.408-17.408-18.432-18.432-18.432-16.384h172.032q2.048-73.728 2.048-110.592 0-259.072-43.008-333.824-35.84-62.464-96.256-110.592t-131.072-71.68q-39.936-15.36-57.344-15.36h-86.016q-3.072 0-49.152 17.408-122.88 54.272-122.88 178.176 0 4.096 1.024 11.264t0 10.24q-137.216 70.656-184.32 220.16-13.312 43.008-13.312 57.344zM149.504 472.832q0-40.96 10.24-82.944t28.672-80.896 54.272-63.488 77.824-24.576q12.288 0 40.96 15.36t50.176 15.36q14.336 0 52.224-10.24t37.888-20.48q0-21.504-26.624-21.504-133.12 0-133.12-77.824 0-59.392 43.008-89.088t105.472-30.72q48.128 0 94.208 17.408t74.752 50.176q43.008 51.2 43.008 167.936 0 19.456-1.024 57.344t-1.024 55.296q0 49.152 5.12 81.92h-197.632q-1.024-8.192-1.024-23.552 0-11.264 1.024-34.816t1.024-35.84q0-35.84-8.192-57.344-5.12-1.024-17.408-1.024-49.152 0-81.92 33.792t-45.056 75.776-12.288 91.136q0 46.080 12.288 93.184t44.032 86.016 78.848 38.912q10.24 0 21.504-3.072-4.096-22.528-4.096-34.816 0-35.84 19.456-59.392t54.272-23.552 58.368 23.552 23.552 59.392q0 41.984-31.744 71.68t-71.68 40.96-80.896 11.264q-138.24 0-228.352-87.040t-90.112-224.256z" />
<glyph unicode="&#xe81d;" glyph-name="appstore" horiz-adv-x="881" d="M1.024 353.024q-1.024-18.432-1.024-36.864 0-69.632 20.48-147.456 26.624-99.328 84.992-188.416 91.136-139.264 176.128-140.288 30.72 0 79.872 21.504t97.28 21.504h4.096q47.104 0 93.184-20.48 48.128-22.528 77.824-22.528 50.176 1.024 93.184 41.984t87.040 106.496q31.744 49.152 66.56 123.904-51.2 19.456-87.040 58.368t-49.152 87.040q-10.24 35.84-9.216 71.68v24.576q4.096 49.152 34.816 94.208t79.872 71.68q-38.912 49.152-91.136 76.8t-105.472 27.648q-49.152 0-107.52-21.504t-88.064-22.528q-30.72 0-92.16 22.528t-104.448 21.504q-59.392 0-116.736-33.792t-98.304-95.232q-37.888-57.344-45.056-142.336zM425.984 617.216q-3.072 15.36-3.072 30.72 0 66.56 54.272 132.096 27.648 33.792 71.68 57.344t83.968 26.624q2.048-15.36 2.048-30.72 0-70.656-51.2-135.168-28.672-36.864-71.68-59.392-41.984-22.528-81.92-21.504h-4.096z" />
<glyph unicode="&#xe81e;" glyph-name="blogger" horiz-adv-x="1020" d="M0 162.56v377.856q0 133.12 95.232 228.352t228.352 95.232h226.304q66.56-8.192 142.336-58.368t106.496-117.76q1.024-2.048 5.12-9.216t5.12-10.24 4.096-10.24 4.096-12.288 3.072-16.384 4.096-22.528 4.096-29.696q9.216-71.68 26.624-87.040 14.336-13.312 72.704-14.336t66.56-8.192l14.336-11.264 8.192-17.408 3.072-14.336-2.048-262.144q-1.024-133.12-95.232-228.352t-227.328-94.208h-371.712q-133.12 0-228.352 94.208t-95.232 228.352zM265.216 167.68q0-25.6 18.432-43.008t44.032-18.432h364.544q25.6 0 44.032 18.432t17.408 43.008-17.408 44.032-44.032 17.408h-364.544q-25.6 0-44.032-17.408t-18.432-44.032zM265.216 538.368q0-25.6 18.432-44.032t44.032-18.432h179.2q25.6 0 44.032 18.432t17.408 44.032-17.408 44.032-44.032 17.408h-179.2q-25.6 0-44.032-17.408t-18.432-44.032z" />
<glyph unicode="&#xe81f;" glyph-name="cc" d="M0 352q0 100.352 38.912 195.584 37.888 92.16 112.64 166.912 147.456 149.504 359.424 149.504 214.016 0 365.568-149.504 72.704-72.704 109.568-165.888 37.888-91.136 37.888-196.608 0-106.496-36.864-196.608-36.864-91.136-109.568-162.816-75.776-73.728-169.984-113.664-96.256-38.912-196.608-38.912-99.328 0-194.56 38.912-91.136 37.888-165.888 112.64t-112.64 165.888-37.888 194.56zM92.16 352q0-80.896 32.768-158.72 31.744-76.8 93.184-136.192 61.44-61.44 136.192-91.136 73.728-31.744 158.72-31.744 82.944 0 159.744 31.744 75.776 31.744 139.264 92.16 119.808 116.736 119.808 293.888 0 87.040-31.744 160.768-30.72 77.824-90.112 135.168-122.88 123.904-296.96 123.904-175.104 0-294.912-122.88-60.416-60.416-93.184-137.216-32.768-77.824-32.768-159.744zM220.16 352q0 72.704 43.008 115.712 41.984 43.008 107.52 43.008 94.208 0 136.192-73.728l-68.608-35.84q-11.264 24.576-27.648 31.744-15.36 9.216-29.696 9.216-68.608 0-68.608-90.112 0-39.936 17.408-65.536 18.432-24.576 51.2-24.576 45.056 0 63.488 43.008l63.488-31.744q-21.504-36.864-56.32-58.368-35.84-21.504-78.848-21.504-68.608 0-110.592 41.984t-41.984 116.736zM516.096 352q0 72.704 43.008 115.712t107.52 43.008q95.232 0 135.168-73.728l-67.584-35.84q-11.264 23.552-26.624 31.744-17.408 9.216-30.72 9.216-68.608 0-68.608-90.112 0-41.984 17.408-65.536 17.408-24.576 51.2-24.576 44.032 0 62.464 43.008l64.512-31.744q-22.528-37.888-57.344-58.368-35.84-21.504-76.8-21.504-70.656 0-111.616 41.984-41.984 41.984-41.984 116.736z" />
<glyph unicode="&#xe820;" glyph-name="dribbble" d="M0 352q0 139.264 68.608 257.024t186.368 186.368 257.024 68.608 257.024-68.608 186.368-186.368 68.608-257.024-68.608-257.024-186.368-186.368-257.024-68.608-257.024 68.608-186.368 186.368-68.608 257.024zM84.992 352q0-159.744 107.52-281.6 49.152 96.256 155.648 183.296t207.872 109.568q-15.36 35.84-29.696 64.512-176.128-56.32-380.928-56.32-39.936 0-59.392 1.024 0-4.096 0-10.24t-1.024-10.24zM98.304 457.472q22.528-2.048 66.56-2.048 171.008 0 324.608 46.080-77.824 138.24-171.008 230.4-80.896-40.96-138.24-113.664t-81.92-160.768zM250.88 15.104q115.712-90.112 261.12-90.112 75.776 0 150.528 28.672-20.48 175.104-79.872 338.944-94.208-20.48-189.44-103.424t-142.336-174.080zM407.552 764.672q90.112-93.184 166.912-232.448 139.264 58.368 209.92 148.48-118.784 98.304-272.384 98.304-52.224 0-104.448-14.336zM611.328 459.52q15.36-32.768 34.816-82.944 75.776 7.168 164.864 7.168 63.488 0 125.952-3.072-8.192 139.264-100.352 247.808-66.56-99.328-225.28-168.96zM671.744 304.896q52.224-151.552 70.656-311.296 80.896 52.224 132.096 134.144t61.44 177.152q-74.752 5.12-136.192 5.12-56.32 0-128-5.12z" />
<glyph unicode="&#xe821;" glyph-name="evernote" horiz-adv-x="857" d="M0 547.584q0 40.96 15.36 59.392 9.216 14.336 26.624 21.504 18.432 9.216 48.128 9.216h96.256q15.36 0 26.624 11.264t11.264 26.624q0 21.504-1.024 45.056v60.416q0 25.6 12.288 45.056 15.36 21.504 51.2 31.744 11.264 6.144 54.272 6.144h19.456q60.416-2.048 100.352-17.408 38.912-16.384 46.080-63.488 26.624 1.024 49.152 1.024 54.272 0 91.136-5.12 99.328-12.288 132.096-24.576 43.008-13.312 54.272-68.608 10.24-56.32 18.432-215.040 5.12-91.136 5.12-150.528 0-45.056-3.072-72.704-16.384-176.128-44.032-260.096-14.336-43.008-28.672-70.656t-27.648-43.008-37.888-23.552-43.008-9.216-60.416-1.024q-110.592 0-148.48 25.6t-38.912 109.568q0 46.080 10.24 73.728t33.792 37.888 47.104 13.312q15.36 1.024 40.96 1.024h28.672q4.096 0 6.144-1.024t0-5.12-2.048-8.192-3.072-11.264-2.048-13.312q0-9.216 2.048-18.432t1.024-12.288-7.168-3.072h-20.48t-10.24 0-10.24-2.048-8.192-2.048-8.192-4.096-6.144-6.144-4.096-9.216-1.024-12.288q0-14.336 4.096-23.552t8.192-14.336 18.432-7.168 22.528-2.048h32.768q58.368 0 74.752 13.312t16.384 65.536q0 77.824-18.432 105.472t-58.368 31.744q-90.112 9.216-121.856 20.48-54.272 20.48-54.272 121.856 0 2.048-2.048 2.048t-3.072-2.048q0-68.608-18.432-122.88l-8.192-24.576q-11.264-25.6-37.888-26.624h-6.144q-24.576 0-55.296 8.192-130.048 16.384-202.752 48.128-24.576 11.264-37.888 40.96-17.408 35.84-35.84 132.096t-24.576 136.192q-4.096 33.792-4.096 52.224zM6.144 669.44v2.048l187.392 184.32q0 1.024 1.024 1.024l-3.072-6.144q-11.264-20.48-11.264-49.152 0-22.528 1.024-105.472 0-10.24-10.24-10.24h-95.232q-34.816 0-60.416-11.264-5.12-3.072-9.216-5.12zM587.776 372.48q21.504 3.072 47.104 3.072 46.080-1.024 82.944-18.432 0 87.040-62.464 89.088h-3.072q-30.72 0-45.056-20.48-15.36-21.504-19.456-53.248z" />
<glyph unicode="&#xe822;" glyph-name="flickr" horiz-adv-x="1077" d="M0 352q0 106.496 74.752 181.248t181.248 74.752 181.248-74.752 74.752-181.248-74.752-181.248-181.248-74.752-181.248 74.752-74.752 181.248zM565.248 352q0 106.496 74.752 181.248t181.248 74.752 181.248-74.752 74.752-181.248-74.752-181.248-181.248-74.752-181.248 74.752-74.752 181.248z" />
<glyph unicode="&#xe823;" glyph-name="google" horiz-adv-x="662" d="M0 26.368q0 89.088 91.136 158.72t220.16 69.632h55.296q-43.008 40.96-43.008 88.064 0 29.696 16.384 59.392-10.24-1.024-29.696-1.024-106.496 0-174.080 66.56t-67.584 163.84q0 93.184 83.968 162.816t191.488 69.632h317.44l-70.656-51.2h-100.352q48.128-18.432 75.776-69.632t26.624-113.664q0-95.232-90.112-165.888-37.888-29.696-49.152-47.104t-11.264-43.008q0-19.456 27.648-49.152t55.296-50.176q62.464-44.032 87.040-90.112t23.552-115.712q0-92.16-83.968-160.768t-227.328-67.584q-136.192 0-230.4 51.2t-94.208 135.168zM114.688 60.16q0-70.656 60.416-120.832t148.48-49.152q121.856 0 177.152 45.056t54.272 119.808q0 19.456-4.096 32.768-3.072 11.264-7.168 21.504t-12.288 19.456-14.336 16.384-19.456 16.384-21.504 15.36-25.6 18.432-26.624 17.408q-39.936 12.288-78.848 12.288h-4.096q-89.088 0-156.672-48.128-69.632-49.152-69.632-116.736zM182.272 632.576q11.264-80.896 62.464-139.264t111.616-59.392h4.096q57.344 0 92.16 53.248 27.648 43.008 27.648 101.376 0 16.384-2.048 34.816-10.24 80.896-60.416 137.216t-112.64 58.368h-4.096q-58.368 0-93.184-52.224-27.648-41.984-27.648-100.352 0-16.384 2.048-33.792z" />
<glyph unicode="&#xe824;" glyph-name="viadeo" horiz-adv-x="900" d="M0 215.808q0-150.528 103.424-263.168t266.24-112.64q161.792 0 265.216 112.64 103.424 110.592 103.424 263.168 0 79.872-27.648 149.504-40.96-25.6-87.040-34.816 22.528-52.224 22.528-116.736 0-77.824-36.864-145.408-37.888-67.584-101.376-103.424-63.488-36.864-138.24-36.864-76.8 0-139.264 36.864-64.512 37.888-100.352 103.424-37.888 66.56-37.888 145.408 0 119.808 81.92 206.848 81.92 84.992 195.584 84.992 52.224 0 100.352-19.456 4.096 39.936 27.648 88.064-58.368 21.504-128 21.504-163.84 0-272.384-120.832-97.28-109.568-97.28-259.072zM286.72-43.264l57.344-4.096q75.776 48.128 128 111.616t73.728 126.976 31.744 129.024q6.144 41.984 6.144 81.92 0 21.504-2.048 40.96-5.12 56.32-12.288 101.376t-16.384 69.632l-9.216 25.6q-22.528 69.632-44.032 121.856t-32.768 68.608l-11.264 17.408q39.936-20.48 64.512-49.152 23.552-29.696 28.672-54.272 4.096-20.48 4.096-39.936v-7.168q-1.024-22.528-6.144-35.84l-5.12-13.312q4.096-59.392 5.12-114.688 0-53.248-5.12-104.448-9.216-102.4-30.72-171.008t-51.2-123.904-58.368-88.064-56.32-53.248-41.984-28.672zM568.32 609.024q4.096 40.96 23.552 65.536l18.432 25.6q12.288 14.336 39.936 27.648t49.152 18.432l21.504 6.144q36.864 8.192 68.608 35.84t44.032 52.224l13.312 23.552q41.984-58.368 50.176-132.096 4.096-32.768 3.072-58.368 0-34.816-6.144-60.416l-11.264-46.080q-12.288-33.792-33.792-61.44t-37.888-37.888l-15.36-11.264q-34.816-20.48-68.608-20.48l-111.616 54.272q59.392 32.768 103.424 66.56t65.536 59.392 33.792 45.056 14.336 31.744l2.048 10.24q-18.432-40.96-49.152-74.752t-63.488-53.248-62.464-32.768-48.128-19.456l-18.432-5.12q-25.6 45.056-25.6 80.896 0 5.12 1.024 10.24z" />
<glyph unicode="&#xe825;" glyph-name="instapaper" horiz-adv-x="501" d="M0-126.208q104.448 6.144 133.12 27.648 30.72 21.504 30.72 109.568v681.984q0 83.968-30.72 108.544-28.672 23.552-133.12 28.672v28.672h500.736v-28.672q-104.448-4.096-134.144-28.672-30.72-24.576-30.72-108.544v-681.984q0-88.064 30.72-109.568t134.144-27.648v-28.672h-500.736v28.672z" />
<glyph unicode="&#xe826;" glyph-name="weibo" horiz-adv-x="1265" d="M0 175.872q0 164.864 188.416 355.328 119.808 118.784 241.664 165.888 57.344 23.552 99.328 23.552 46.080 0 73.728-27.648 26.624-26.624 26.624-73.728 0-31.744-12.288-73.728-4.096-14.336 3.072-17.408t16.384-1.024l10.24 4.096q98.304 40.96 174.080 40.96t108.544-43.008q15.36-22.528 15.36-53.248 0-31.744-16.384-72.704-7.168-10.24-2.048-17.408t8.192-9.216 14.336-5.12q63.488-19.456 108.544-63.488t45.056-109.568q0-60.416-41.984-122.88t-113.664-115.712-182.272-86.016-234.496-33.792q-134.144 0-252.928 38.912t-198.656 118.784-78.848 178.176zM128 126.72q10.24-103.424 128-164.864 94.208-50.176 214.016-50.176 29.696 0 61.44 3.072 156.672 15.36 261.12 99.328 94.208 76.8 94.208 168.96 0 9.216-1.024 18.432-10.24 102.4-128 163.84-95.232 50.176-215.040 50.176-29.696 0-60.416-3.072-103.424-10.24-187.392-52.224t-129.024-103.424q-38.912-54.272-38.912-111.616 0-9.216 1.024-18.432zM291.84 63.232q-13.312 29.696-13.312 60.416 0 35.84 18.432 71.68 31.744 65.536 106.496 98.304 46.080 20.48 93.184 20.48 27.648 0 55.296-7.168 77.824-20.48 111.616-83.968 17.408-32.768 17.408-67.584 0-32.768-15.36-66.56-31.744-72.704-111.616-106.496-45.056-19.456-90.112-19.456-34.816 0-68.608 11.264-74.752 23.552-103.424 89.088zM349.184 82.688q6.144-25.6 30.72-35.84 13.312-6.144 27.648-6.144 12.288 0 24.576 4.096 28.672 9.216 44.032 33.792 10.24 16.384 10.24 32.768 0 7.168-3.072 15.36-6.144 24.576-30.72 34.816-13.312 5.12-26.624 5.12-12.288 0-25.6-4.096-27.648-9.216-41.984-32.768-11.264-16.384-11.264-33.792 0-7.168 2.048-13.312zM493.568 163.584q3.072-9.216 13.312-13.312 5.12-2.048 10.24-2.048t9.216 2.048q11.264 4.096 16.384 13.312t2.048 18.432-12.288 13.312q-9.216 3.072-19.456 0t-16.384-13.312q-3.072-6.144-3.072-12.288v-6.144zM822.272 799.488q-1.024 5.12-1.024 10.24 0 13.312 8.192 25.6 10.24 16.384 29.696 21.504 34.816 7.168 69.632 7.168 52.224 0 102.4-15.36 84.992-27.648 146.432-95.232t79.872-156.672q7.168-35.84 7.168-69.632 0-52.224-16.384-100.352v-1.024q-6.144-18.432-23.552-27.648-11.264-5.12-22.528-5.12-7.168 0-15.36 2.048-19.456 6.144-27.648 23.552-5.12 11.264-5.12 21.504 0 8.192 2.048 15.36v1.024q11.264 34.816 11.264 71.68 0 23.552-4.096 49.152-13.312 63.488-57.344 111.616t-104.448 67.584q-35.84 10.24-71.68 10.24-24.576 0-50.176-5.12-5.12-1.024-10.24-1.024-14.336 0-26.624 8.192-16.384 11.264-20.48 30.72zM863.232 638.72q-1.024 5.12-1.024 10.24 0 10.24 6.144 21.504 9.216 14.336 26.624 18.432 19.456 4.096 37.888 4.096 68.608 0 117.76-54.272 29.696-33.792 38.912-76.8 3.072-17.408 3.072-33.792 0-24.576-8.192-49.152-5.12-16.384-20.48-23.552-9.216-5.12-18.432-5.12-7.168 0-13.312 2.048-16.384 5.12-24.576 20.48-4.096 9.216-4.096 18.432 0 7.168 2.048 13.312 4.096 14.336 4.096 26.624 0 28.672-21.504 51.2-22.528 26.624-55.296 26.624-10.24 0-20.48-2.048-5.12-1.024-9.216-1.024-11.264 0-21.504 7.168-14.336 9.216-18.432 25.6z" />
<glyph unicode="&#xe827;" glyph-name="klout" horiz-adv-x="1112" d="M0-160v1024h263.168v-379.904h234.496q87.040 125.952 263.168 379.904h292.864l-335.872-488.448q0-12.288 99.328-146.432t196.608-262.144l98.304-126.976h-351.232q-48.128 67.584-146.432 204.8t-146.432 204.8h-204.8v-409.6h-263.168z" />
<glyph unicode="&#xe828;" glyph-name="linkedin" horiz-adv-x="1061" d="M0 741.12q0 51.2 35.84 84.992t93.184 32.768q56.32 0 91.136-32.768 35.84-33.792 35.84-88.064 0-49.152-34.816-81.92-35.84-33.792-94.208-33.792h-1.024q-56.32 0-91.136 33.792t-34.816 84.992zM13.312-154.88v684.032h227.328v-684.032h-227.328zM366.592-154.88h227.328v381.952q0 35.84 8.192 55.296 14.336 34.816 44.032 59.392t72.704 23.552q114.688 0 114.688-154.624v-365.568h227.328v392.192q0 151.552-71.68 230.4t-189.44 77.824q-132.096 0-205.824-113.664v-2.048h-1.024l1.024 2.048v97.28h-227.328q2.048-32.768 2.048-203.776t-2.048-480.256z" />
<glyph unicode="&#xe829;" glyph-name="meetup" horiz-adv-x="1373" d="M0 392.96q0 35.84 2.048 107.52 24.576 8.192 49.152 8.192h18.432q17.408-23.552 40.96-71.68t31.744-62.464q2.048 7.168 8.192 37.888t10.24 43.008 11.264 37.888 16.384 40.96 19.456 31.744q28.672-5.12 47.104-5.12 6.144 0 11.264 1.024 24.576-55.296 47.104-166.912t38.912-158.72q-1.024 0-4.096 1.024l-3.072 1.024q-9.216 0-26.624-5.12t-22.528-7.168q-40.96 103.424-63.488 207.872-15.36-26.624-15.36-91.136t-11.264-90.112l-5.12 2.048q-8.192 0-22.528-2.048t-21.504-2.048h-18.432q-27.648 49.152-58.368 91.136-3.072-6.144-3.072-15.36t3.072-26.624 2.048-25.6l-1.024-12.288q-30.72-15.36-53.248-15.36-7.168 0-10.24 1.024-17.408 57.344-17.408 145.408zM363.52 315.136q0 27.648 8.192 59.392t28.672 58.368 48.128 26.624q10.24 0 28.672-5.12t23.552-6.144q9.216-40.96 9.216-82.944 0-28.672-6.144-56.32-12.288 4.096-38.912 5.12t-37.888 3.072q-5.12-20.48-5.12-37.888 0-21.504 10.24-37.888t30.72-16.384q9.216 0 26.624 5.12t26.624 5.12q17.408 0 23.552-14.336-43.008-16.384-83.968-16.384-47.104 0-69.632 30.72t-22.528 79.872zM422.912 343.808l8.192 1.024q3.072 0 8.192-2.048t7.168-2.048l7.168 3.072q2.048 14.336 2.048 22.528 0 18.432-5.12 40.96-22.528-25.6-27.648-63.488zM535.552 288.512q0 125.952 79.872 186.368 32.768-3.072 61.44-23.552-1.024-17.408-8.192-68.608-5.12-39.936-5.12-66.56v-14.336q-20.48-2.048-29.696-2.048-8.192 0-44.032 5.12-5.12-12.288-5.12-23.552 0-22.528 17.408-37.888t39.936-16.384q26.624 0 41.984 23.552 18.432-6.144 21.504-17.408-22.528-21.504-64.512-21.504-37.888 0-71.68 20.48t-33.792 56.32zM592.896 332.544q4.096-6.144 14.336-6.144h9.216q9.216 19.456 9.216 50.176 0 13.312-6.144 39.936-3.072-8.192-10.24-25.6t-11.264-30.72-5.12-27.648zM694.272 352q-2.048 26.624 23.552 26.624 6.144 0 18.432-1.024t17.408-1.024q3.072 15.36 3.072 31.744 0 29.696-7.168 89.088t-8.192 88.064q0 44.032 10.24 73.728 5.12-3.072 27.648-5.12t40.96-25.6q-6.144-26.624-6.144-68.608 0-20.48 4.096-82.944 2.048-35.84 2.048-62.464 0-20.48-1.024-34.816h6.144q7.168 0 9.216 6.144t2.048 13.312 4.096 6.144q8.192 0 19.456-8.192t22.528-22.528 15.36-16.384q-9.216-7.168-40.96-9.216t-39.936-4.096q-1.024-12.288-1.024-36.864 0-16.384 1.024-33.792t1.024-38.912 1.024-33.792q-8.192-1.024-23.552-2.048t-22.528-2.048v20.48q0 21.504-3.072 58.368-4.096 45.056-4.096 62.464-6.144 2.048-32.768 4.096t-38.912 9.216zM914.432 360.192q0 20.48 2.048 59.392 11.264-1.024 20.48-5.12t21.504-10.24 18.432-10.24l-1.024-27.648q0-60.416 9.216-118.784 19.456 7.168 31.744 23.552t17.408 43.008 5.12 43.008 2.048 45.056v11.264q3.072-1.024 9.216-1.024 20.48-2.048 50.176-25.6 0-3.072 1.024-9.216t0-10.24q0-15.36-4.096-30.72t-7.168-22.528-15.36-25.6-14.336-23.552q-15.36-12.288-34.816-43.008-21.504-7.168-38.912-7.168-72.704 0-72.704 145.408zM1119.232 249.6q7.168 6.144 24.576 10.24 0 3.072 1.024 9.216 4.096 35.84 7.168 58.368t13.312 60.416 22.528 60.416 35.84 40.96 54.272 17.408q34.816 0 77.824-24.576 17.408-37.888 17.408-76.8 0-67.584-47.104-121.856t-115.712-69.632q-2.048-32.768-2.048-49.152 0-74.752 18.432-119.808-8.192 2.048-37.888 2.048-15.36 0-22.528 2.048-9.216 21.504-16.384 98.304t-30.72 102.4zM1211.392 275.2q39.936 10.24 67.584 49.152t26.624 80.896q0 30.72-15.36 57.344-23.552-21.504-39.936-56.32t-23.552-61.44-15.36-69.632z" />
<glyph unicode="&#xe82a;" glyph-name="vk" horiz-adv-x="1249" d="M0 663.296q10.24 8.192 25.6 12.288 14.336 4.096 25.6 4.096h9.216q10.24 0 24.576-1.024 22.528-1.024 32.768-1.024 6.144 0 38.912 2.048 16.384 1.024 29.696 1.024t23.552-1.024q20.48-2.048 32.768-8.192 6.144-3.072 13.312-13.312t12.288-19.456 11.264-25.6 10.24-22.528q38.912-83.968 96.256-166.912 2.048-3.072 7.168-11.264t9.216-12.288 9.216-12.288 10.24-11.264 11.264-8.192 11.264-6.144 12.288 0q28.672 5.12 31.744 119.808 1.024 19.456 1.024 35.84 0 75.776-15.36 104.448-6.144 11.264-15.36 18.432t-25.6 12.288-23.552 10.24q14.336 28.672 51.2 37.888t98.304 9.216h54.272t26.624 0 27.648-3.072l22.528-6.144t20.48-9.216 12.288-14.336q9.216-18.432 11.264-43.008 0-7.168 1.024-14.336 0-20.48-3.072-53.248-4.096-43.008-4.096-53.248-3.072-23.552-3.072-47.104 0-18.432 2.048-38.912 4.096-45.056 30.72-62.464 9.216 1.024 17.408 4.096t15.36 11.264 11.264 12.288 13.312 16.384 10.24 14.336q48.128 63.488 96.256 166.912l9.216 23.552t12.288 26.624 12.288 20.48 15.36 13.312q16.384 7.168 38.912 7.168h9.216q20.48 0 47.104-2.048 32.768-2.048 48.128-2.048 9.216 0 28.672 1.024t32.768 2.048 30.72-1.024 25.6-6.144 14.336-13.312q3.072-6.144 3.072-13.312 0-29.696-35.84-89.088-17.408-29.696-34.816-53.248t-47.104-59.392-37.888-48.128q-2.048-2.048-14.336-18.432t-17.408-24.576-12.288-22.528-5.12-27.648q0-8.192 3.072-15.36t10.24-15.36 10.24-12.288 13.312-13.312 12.288-11.264q72.704-66.56 114.688-119.808 40.96-53.248 40.96-76.8 0-33.792-52.224-41.984-26.624-4.096-54.272-4.096-21.504 0-44.032 3.072-20.48 2.048-37.888 2.048-26.624 0-46.080-5.12h-6.144q-67.584 11.264-142.336 96.256-4.096 4.096-17.408 21.504t-22.528 25.6-23.552 17.408-27.648 6.144q-23.552-4.096-30.72-29.696t-9.216-60.416-10.24-50.176q-13.312-24.576-80.896-24.576-28.672 0-67.584 4.096-79.872 8.192-144.384 40.96t-103.424 69.632-82.944 94.208q-106.496 136.192-201.728 329.728-3.072 6.144-11.264 23.552t-12.288 25.6-9.216 24.576-8.192 28.672-3.072 26.624z" />
<glyph unicode="&#xe82b;" glyph-name="plancast" horiz-adv-x="1075" d="M0 236.288q10.24 142.336 172.032 177.152 12.288 91.136 44.032 196.608t72.704 149.504q49.152 50.176 122.88 77.824t149.504 26.624q88.064 0 167.936-39.936t119.808-112.64q19.456-36.864 43.008-133.12t30.72-158.72q15.36-6.144 34.816-6.144 30.72 0 30.72 29.696 0 11.264-6.144 34.816t-5.12 35.84v4.096h1.024q27.648 0 62.464-52.224 34.816-53.248 34.816-82.944 0-20.48-9.216-35.84t-19.456-25.6-33.792-17.408-33.792-11.264l-36.864-8.192q-5.12-1.024-8.192-2.048v-26.624q0-177.152-78.848-259.072l25.6-25.6q4.096-2.048 25.6-12.288t36.864-18.432 18.432-18.432q-66.56-52.224-135.168-52.224-34.816 0-76.8 17.408-90.112-37.888-184.32-37.888-120.832 0-239.616 62.464-36.864-8.192-56.32-19.456-7.168-4.096-26.624-18.432t-37.888-24.576-28.672-9.216q-3.072 18.432-3.072 37.888 0 80.896 54.272 129.024-61.44 101.376-63.488 263.168l-7.168 1.024h-3.072q-30.72 1.024-77.824-17.408-49.152-18.432-65.536-19.456-4.096 0-10.24 2.048zM237.568 141.056q0-13.312 7.168-27.648 27.648-98.304 91.136-141.312 44.032-29.696 108.544-48.128t119.808-17.408q67.584 0 149.504 28.672t121.856 73.728q69.632 74.752 69.632 263.168 0 231.424-94.208 388.096-12.288 20.48-17.408 28.672t-19.456 15.36-33.792 8.192q-51.2 0-109.568-62.464-77.824 48.128-143.36 48.128-60.416 0-106.496-44.032t-72.704-106.496-43.008-144.384-22.528-144.384-5.12-117.76zM422.912 557.824q0 22.528 16.384 38.912t36.864 15.36q22.528 0 38.912-15.36t15.36-38.912-15.36-37.888-38.912-15.36q-21.504 0-36.864 15.36t-16.384 37.888zM480.256 576.256q0-12.288 12.288-12.288 5.12 0 9.216 4.096t3.072 8.192-3.072 9.216-9.216 4.096q-12.288 0-12.288-13.312zM576.512 514.816l2.048 2.048-1.024-3.072zM581.632 519.936l53.248 53.248 52.224-53.248q-22.528-7.168-51.2-7.168-29.696 0-54.272 7.168zM583.68 497.408q27.648-5.12 51.2-5.12 22.528 0 50.176 5.12l-50.176-50.176zM691.2 513.792v3.072l1.024-2.048zM718.848 557.824q0 22.528 16.384 38.912t37.888 15.36 38.912-15.36 15.36-38.912-15.36-37.888-38.912-15.36-37.888 15.36-16.384 37.888zM776.192 576.256q0-5.12 4.096-8.192t8.192-4.096q5.12 0 9.216 4.096t4.096 8.192q0 13.312-13.312 13.312-5.12 0-8.192-4.096t-4.096-9.216z" />
<glyph unicode="&#xe82c;" glyph-name="disqus" horiz-adv-x="884" d="M0-141.568v979.968q123.904 21.504 304.128 21.504 143.36 0 241.664-24.576t168.96-78.848q168.96-128 168.96-378.88 0-266.24-164.864-404.48-151.552-129.024-461.824-129.024-146.432 0-257.024 14.336zM225.28 24.32q19.456-4.096 78.848-4.096h4.096q156.672 0 245.76 87.040 91.136 88.064 91.136 262.144 0 157.696-82.944 237.568t-234.496 79.872q-67.584 0-102.4-9.216v-653.312z" />
<glyph unicode="&#xe82d;" glyph-name="rss" d="M0-22.784q0 56.32 39.936 96.256t96.256 39.936 96.256-39.936 39.936-96.256q0-57.344-39.936-97.28t-96.256-38.912-96.256 39.936-39.936 96.256zM0 320.256v195.584q183.296 0 338.944-90.112t246.784-246.784 90.112-338.944h-196.608q0 198.656-140.288 338.944-141.312 141.312-338.944 141.312zM0 667.392v196.608q207.872 0 397.312-80.896t326.656-219.136 219.136-326.656 80.896-397.312h-196.608q0 167.936-65.536 321.536t-176.128 264.192-264.192 176.128-321.536 65.536z" />
<glyph unicode="&#xe82e;" glyph-name="skype" horiz-adv-x="1010" d="M0 584.448q0 115.712 81.92 197.632t197.632 81.92q79.872 0 148.48-43.008 36.864 7.168 81.92 7.168 199.68 0 340.992-141.312t141.312-339.968q0-50.176-11.264-103.424 28.672-60.416 28.672-123.904 0-115.712-81.92-197.632t-197.632-81.92q-69.632 0-132.096 32.768-46.080-8.192-88.064-8.192-198.656 0-339.968 141.312t-141.312 340.992q0 48.128 9.216 96.256-37.888 66.56-37.888 141.312zM226.304 209.664q0-41.984 30.72-87.040 72.704-106.496 251.904-106.496 51.2 0 99.328 11.264t89.088 34.816 67.584 65.536 25.6 96.256q0 59.392-29.696 100.352t-75.776 59.392-97.28 33.792-98.304 23.552-74.752 26.624-30.72 45.056q0 33.792 37.888 50.176t75.776 16.384q40.96 0 67.584-12.288t38.912-30.72 21.504-35.84 25.6-30.72 39.936-13.312q27.648 0 49.152 19.456t20.48 47.104-15.36 55.296q-30.72 56.32-97.28 81.92t-141.312 25.6q-47.104 0-91.136-9.216t-84.992-29.696-65.536-57.344-25.6-89.088q0-67.584 40.96-108.544t99.328-58.368 117.76-29.696 99.328-33.792 40.96-60.416q0-29.696-23.552-50.176t-51.2-27.648-58.368-7.168q-38.912 0-65.536 11.264t-39.936 27.648-22.528 35.84-18.432 35.84-23.552 27.648-37.888 10.24q-28.672 0-49.152-17.408t-21.504-46.080z" />
<glyph unicode="&#xe82f;" glyph-name="twitter" horiz-adv-x="1260" d="M0-44.288q30.72-3.072 61.44-3.072 180.224 0 321.536 110.592-83.968 1.024-150.528 51.2t-91.136 128q20.48-4.096 48.128-4.096 35.84 0 68.608 9.216-90.112 17.408-148.48 89.088t-59.392 163.84v3.072q54.272-30.72 117.76-31.744-53.248 34.816-83.968 92.16t-31.744 122.88q0 69.632 35.84 130.048 96.256-119.808 235.52-190.464t296.96-79.872q-7.168 33.792-7.168 59.392 0 106.496 75.776 182.272t183.296 75.776q111.616 0 188.416-81.92 89.088 18.432 163.84 63.488-28.672-93.184-112.64-143.36 74.752 9.216 147.456 40.96-49.152-76.8-128-134.144v-33.792q0-103.424-29.696-206.848t-92.16-198.656-148.48-168.96-205.824-117.76-259.072-43.008q-214.016 0-396.288 115.712z" />
<glyph unicode="&#xe830;" glyph-name="youtube" horiz-adv-x="884" d="M0 119.552q0 55.296 6.144 165.888 4.096 54.272 38.912 89.088t89.088 36.864q102.4 5.12 308.224 5.12t308.224-5.12q54.272-3.072 89.088-36.864t38.912-89.088q5.12-92.16 5.12-165.888t-5.12-165.888q-4.096-54.272-38.912-89.088t-89.088-36.864q-102.4-5.12-308.224-5.12t-308.224 5.12q-54.272 3.072-89.088 36.864t-38.912 89.088q-6.144 110.592-6.144 165.888zM68.608 263.936h62.464v-333.824h60.416v333.824h62.464v56.32h-185.344v-56.32zM135.168 881.408h61.44l38.912-155.648h4.096l36.864 155.648h61.44l-47.104-151.552q-23.552-74.752-23.552-76.8v-161.792h-60.416v154.624q-2.048 14.336-5.12 26.624t-9.216 26.624-9.216 25.6zM253.952-24.832q0-49.152 36.864-49.152 32.768 0 62.464 35.84v-31.744h53.248v287.744h-53.248v-219.136q-21.504-21.504-31.744-21.504-14.336 0-14.336 19.456v221.184h-53.248v-242.688zM334.848 563.968v149.504q0 34.816 22.528 54.272t57.344 18.432q33.792 0 55.296-20.48t20.48-54.272v-148.48q0-36.864-20.48-57.344t-57.344-21.504q-35.84 0-56.32 22.528t-21.504 57.344zM390.144 556.8q0-23.552 22.528-23.552 23.552 0 23.552 25.6v156.672q0 9.216-7.168 15.36t-16.384 6.144-15.36-5.12-7.168-15.36v-159.744zM458.752-69.888h54.272v21.504q20.48-25.6 51.2-25.6 48.128 0 48.128 63.488v159.744q0 72.704-52.224 72.704-25.6 0-47.104-27.648v125.952h-54.272v-390.144zM513.024-15.616v180.224q11.264 11.264 22.528 11.264 22.528 0 22.528-28.672v-151.552q0-24.576-19.456-24.576-14.336 0-25.6 13.312zM536.576 536.32v242.688h53.248v-220.16q0-19.456 14.336-19.456 13.312 0 31.744 21.504v218.112h53.248v-287.744h-53.248v31.744q-29.696-35.84-62.464-35.84-36.864 0-36.864 49.152zM653.312 11.008q0-38.912 19.456-64.512t58.368-24.576q79.872 0 79.872 89.088v21.504h-55.296q0-2.048 1.024-13.312t-1.024-17.408-2.048-14.336-7.168-12.288-14.336-3.072q-23.552 0-23.552 40.96v54.272h102.4v73.728q0 38.912-18.432 61.44t-58.368 22.528q-36.864 0-58.368-23.552t-22.528-60.416v-130.048zM708.608 112.384v30.72q0 31.744 23.552 31.744t23.552-31.744v-30.72h-47.104z" />
<glyph unicode="&#xe831;" glyph-name="vimeo" horiz-adv-x="1174" d="M0 585.472q56.32 66.56 112.64 118.784t98.304 79.872 73.728 44.032 49.152 21.504l17.408 4.096q12.288 2.048 24.576 2.048 19.456 0 35.84-6.144 26.624-10.24 44.032-34.816t29.696-56.32 21.504-73.728 15.36-79.872 14.336-80.896 14.336-72.704q32.768-128 53.248-181.248t41.984-54.272q24.576 0 68.608 57.344t95.232 154.624q26.624 49.152 26.624 93.184 0 13.312-2.048 23.552-9.216 53.248-52.224 66.56-11.264 4.096-24.576 4.096-35.84 0-84.992-26.624 22.528 133.12 137.216 214.016 87.040 61.44 178.176 61.44 12.288 0 24.576-1.024 104.448-8.192 142.336-92.16 18.432-38.912 18.432-90.112 0-29.696-6.144-62.464-18.432-104.448-70.656-212.992t-115.712-191.488-136.192-158.72-125.952-120.832-93.184-69.632q-43.008-24.576-79.872-24.576t-71.68 21.504-57.344 49.152-38.912 58.368q-18.432 38.912-99.328 306.176t-99.328 286.72q-1.024 2.048-4.096 4.096t-13.312 5.12-24.576 0-37.888-14.336-51.2-33.792z" />
<glyph unicode="&#xe832;" glyph-name="windows" horiz-adv-x="1263" d="M0-50.432l107.52 379.904q35.84 20.48 88.064 31.744t84.992 13.312l34.816 1.024q51.2 0 106.496-10.24 103.424-20.48 147.456-62.464l-106.496-378.88q-36.864 28.672-80.896 46.080t-70.656 21.504l-26.624 4.096q-34.816 3.072-66.56 3.072-16.384 0-43.008-1.024t-86.016-14.336-89.088-33.792zM129.024 438.016l107.52 379.904q35.84 20.48 88.064 32.768t86.016 12.288l33.792 1.024q52.224 0 106.496-10.24 103.424-20.48 147.456-62.464l-106.496-379.904q-36.864 28.672-80.896 47.104t-70.656 20.48l-26.624 4.096q-35.84 3.072-65.536 3.072-16.384 0-43.008-1.024t-86.016-13.312-90.112-33.792zM570.368-87.296l106.496 379.904q37.888-28.672 82.944-46.080t69.632-21.504l25.6-4.096q34.816-3.072 66.56-3.072 16.384 0 44.032 2.048t86.016 13.312 88.064 32.768l-106.496-379.904q-35.84-20.48-88.064-31.744t-86.016-12.288l-33.792-2.048q-52.224 0-106.496 10.24-103.424 20.48-148.48 62.464zM693.248 399.104l106.496 378.88q37.888-28.672 82.944-46.080t69.632-21.504l25.6-4.096q34.816-3.072 66.56-3.072 16.384 0 44.032 2.048t84.992 13.312 89.088 32.768l-106.496-378.88q-35.84-20.48-88.064-31.744t-87.040-13.312l-33.792-2.048q-53.248 0-105.472 11.264-103.424 19.456-148.48 62.464z" />
<glyph unicode="&#xe833;" glyph-name="xing" horiz-adv-x="963" d="M0 149.248h224.256l177.152 292.864-133.12 234.496h-224.256l133.12-234.496zM370.688 241.408l354.304 622.592h237.568l-353.28-622.592 227.328-401.408h-237.568z" />
<glyph unicode="&#xe834;" glyph-name="yahoo" horiz-adv-x="1408" d="M0 649.984l6.144-19.456q4.096-6.144 8.192-10.24t5.12-5.12l2.048-2.048 19.456-10.24h113.664l293.888-352.256q11.264-12.288 11.264-25.6v-196.608q0-8.192-2.048-12.288t-6.144-5.12h-3.072q-114.688 0-145.408-3.072-10.24 0-10.24-9.216v-56.32h528.384v58.368q0 3.072-2.048 5.12t-5.12 2.048h-149.504q-9.216 0-9.216 15.36v206.848q-1.024 3.072 2.048 7.168t5.12 7.168l3.072 3.072q11.264 11.264 270.336 254.976h136.192q9.216 0 18.432 7.168l17.408 19.456q6.144 7.168 6.144 18.432v14.336q-1.024 3.072-3.072 5.12t-3.072 1.024h-448.512l-7.168-6.144q-1.024-6.144 2.048-12.288t5.12-10.24l2.048-4.096 23.552-23.552 18.432-7.168h117.76l-211.968-199.68-233.472 297.984h41.984q13.312-1.024 22.528 4.096l69.632 21.504q1.024 0 3.072 1.024t5.12 5.12 2.048 9.216v14.336q0 3.072-2.048 5.12t-4.096 2.048h-503.808q-8.192-1.024-10.24-7.168v-8.192zM1218.56 761.6l189.44-7.168-84.992-580.608-62.464 3.072zM1231.872-19.712l4.096 112.64 112.64-4.096-4.096-112.64z" />
<glyph unicode="&#xe835;" glyph-name="chrome" horiz-adv-x="1022" d="M0 328.448q0 76.8 23.552 159.744t63.488 147.456q63.488 106.496 187.392 167.936t253.952 60.416q133.12 0 256-82.944t186.368-206.848q51.2-88.064 51.2-219.136 0-153.6-72.704-272.384t-196.608-181.248-276.48-61.44q20.48 36.864 62.464 111.616t75.776 134.144 65.536 110.592l1.024 2.048q3.072 5.12 12.288 19.456t13.312 19.456 9.216 17.408 10.24 21.504 5.12 21.504q6.144 24.576 6.144 49.152 0 81.92-49.152 145.408l281.6 82.944q-291.84 0-438.272-1.024-7.168 1.024-22.528 1.024-101.376 0-168.96-75.776t-57.344-177.152q-2.048 9.216-2.048 28.672 0 45.056 15.36 78.848l-208.896 205.824 202.752-349.184q19.456-73.728 81.92-119.808t137.216-47.104q17.408 0 33.792 3.072l-67.584-282.624q-117.76 0-228.352 72.704t-179.2 180.224q-67.584 104.448-67.584 235.52zM319.488 347.904q0-78.848 56.32-134.144t133.12-56.32 134.144 56.32 55.296 134.144q0 77.824-55.296 134.144t-134.144 55.296-134.144-55.296-55.296-134.144z" />
<glyph unicode="&#xe836;" glyph-name="email" horiz-adv-x="1062" d="M0 57.088v589.824q0 1.024 3.072 19.456l347.136-296.96-346.112-332.8q-4.096 14.336-4.096 20.48zM46.080 707.328q7.168 3.072 17.408 3.072h934.912q9.216 0 18.432-3.072l-348.16-297.984-46.080-36.864-91.136-74.752-91.136 74.752-46.080 36.864zM47.104-3.328l349.184 334.848 135.168-109.568 135.168 109.568 349.184-334.848q-8.192-3.072-17.408-3.072h-934.912q-8.192 0-16.384 3.072zM712.704 369.408l346.112 296.96q3.072-9.216 3.072-19.456v-589.824q0-9.216-3.072-20.48z" />
<glyph unicode="&#xe837;" glyph-name="macstore" horiz-adv-x="1133" d="M0 236.288v154.624q0 10.24 7.168 18.432t18.432 7.168h271.36l-117.76-205.824h-153.6q-11.264 0-18.432 7.168t-7.168 18.432zM124.928-13.568l67.584-38.912zM135.168 31.488q-3.072 10.24 2.048 19.456l311.296 540.672q5.12 9.216 15.36 12.288t19.456-3.072l66.56-37.888q10.24-5.12 13.312-15.36t-3.072-20.48l-310.272-540.672q-5.12-9.216-15.36-11.264t-20.48 2.048l-66.56 38.912q-9.216 4.096-12.288 15.36zM450.56 210.688l117.76 205.824h68.608l96.256-205.824h-282.624zM530.432 850.688q1.024 9.216 6.144 12.288 10.24 5.12 36.864-31.744t72.704-118.784 63.488-107.52q28.672-45.056 77.824-133.12t93.184-173.056 44.032-86.016q11.264-19.456-2.048-36.864t-31.744-24.576q-18.432-8.192-24.576-9.216t-30.72 7.168q-30.72 15.36-194.56 402.432-5.12 11.264-13.312 31.744t-17.408 38.912-19.456 43.008-18.432 45.056-17.408 43.008-14.336 39.936-8.192 32.768-2.048 24.576zM866.304 416.512h240.64q10.24 0 18.432-7.168t7.168-18.432v-154.624q0-10.24-7.168-17.408t-18.432-8.192h-136.192q-4.096 16.384-8.192 23.552l-24.576 47.104q-65.536 123.904-71.68 135.168zM879.616 92.928q3.072 10.24 13.312 15.36l37.888 19.456q10.24 5.12 21.504 2.048t16.384-14.336l31.744-61.44q12.288-24.576-10.24-39.936l-27.648-16.384q-10.24-5.12-21.504-2.048t-17.408 12.288l-40.96 63.488q-6.144 10.24-3.072 21.504zM958.464-55.552q0 16.384 4.096 21.504t12.288 14.336l24.576 9.216q62.464 12.288 73.728-71.68 3.072-32.768-1.024-77.824-4.096 12.288-45.056 30.72t-56.32 38.912q-13.312 18.432-12.288 34.816z" />
<glyph unicode="&#xe838;" glyph-name="myspace" horiz-adv-x="1112" d="M0 172.8v358.4h143.36v-211.968h824.32v211.968h144.384v-358.4h-1112.064z" />
<glyph unicode="&#xe839;" glyph-name="podcast" d="M0 332.544q0 144.384 68.608 267.264t186.368 193.536 257.024 70.656 257.024-70.656 186.368-193.536 68.608-267.264q0-4.096 0-10.24t-1.024-10.24q-8.192 212.992-155.648 361.472t-355.328 148.48-354.304-148.48-156.672-361.472q0 4.096 0 10.24t-1.024 10.24zM187.392 333.568q0 139.264 95.232 238.592t229.376 98.304 229.376-98.304 95.232-238.592q0-3.072 0-10.24t-1.024-10.24q-8.192 132.096-101.376 224.256t-222.208 92.16-222.208-92.16-101.376-224.256q0 3.072 0 10.24t-1.024 10.24zM357.376 133.888q0 33.792 5.12 60.416t10.24 44.032 19.456 29.696 23.552 18.432 28.672 10.24 31.744 4.096 35.84 0 35.84 0 31.744-4.096 29.696-10.24 23.552-18.432 18.432-29.696 11.264-44.032 4.096-60.416q0-120.832-45.056-207.872t-109.568-86.016-108.544 86.016-46.080 207.872zM405.504 420.608q0 45.056 31.744 77.824t74.752 32.768 75.776-32.768 30.72-77.824-30.72-77.824-75.776-32.768-74.752 32.768-31.744 77.824z" />
<glyph unicode="&#xe83a;" glyph-name="amazon" horiz-adv-x="1126" d="M2.048 69.376q5.12 8.192 16.384 1.024 256-148.48 557.056-148.48 200.704 0 396.288 74.752 5.12 2.048 15.36 6.144t13.312 6.144q15.36 6.144 24.576-6.144t-6.144-22.528q-18.432-13.312-47.104-30.72-88.064-52.224-196.608-80.896t-211.968-28.672q-159.744 0-302.080 55.296t-254.976 157.696q-6.144 5.12-6.144 10.24 0 3.072 2.048 6.144zM310.272 361.216q0 70.656 34.816 120.832t95.232 75.776q55.296 23.552 136.192 33.792 27.648 3.072 90.112 8.192v17.408q0 65.536-14.336 88.064-21.504 30.72-67.584 30.72h-8.192q-33.792-3.072-58.368-21.504t-31.744-51.2q-4.096-20.48-20.48-23.552l-117.76 14.336q-17.408 4.096-17.408 18.432 0 3.072 1.024 7.168 17.408 91.136 86.016 135.168t158.72 49.152h25.6q116.736 0 182.272-60.416 10.24-10.24 19.456-21.504t13.312-21.504 9.216-26.624 6.144-23.552 3.072-28.672 1.024-26.624v-247.808q0-26.624 8.192-48.128t14.336-31.744 23.552-31.744q6.144-9.216 6.144-16.384 0-8.192-8.192-14.336-84.992-73.728-92.16-79.872-12.288-9.216-29.696-2.048-14.336 12.288-24.576 23.552t-15.36 16.384-15.36 20.48-14.336 19.456q-57.344-62.464-112.64-77.824-34.816-10.24-86.016-10.24-78.848 0-129.024 49.152t-51.2 137.216zM486.4 381.696q0-39.936 20.48-63.488t53.248-24.576q3.072 0 9.216 1.024t7.168 1.024q43.008 11.264 66.56 55.296 11.264 19.456 17.408 43.008t6.144 36.864 0 47.104v25.6q-59.392 0-90.112-8.192-90.112-25.6-90.112-113.664zM916.48 51.968q2.048 4.096 6.144 8.192 25.6 17.408 49.152 23.552 38.912 10.24 75.776 11.264 10.24 1.024 19.456-1.024 46.080-4.096 55.296-15.36 4.096-6.144 4.096-18.432v-7.168q0-35.84-19.456-84.992t-54.272-77.824q-5.12-4.096-9.216-4.096-2.048 0-4.096 1.024-6.144 3.072-3.072 11.264 37.888 89.088 37.888 123.904 0 11.264-4.096 16.384-10.24 12.288-57.344 12.288-17.408 0-40.96-2.048-25.6-3.072-47.104-6.144-6.144 0-8.192 2.048t-1.024 4.096q0 1.024 1.024 3.072z" />
<glyph unicode="&#xe83b;" glyph-name="steam" horiz-adv-x="1343" d="M0 474.88q0 56.32 39.936 96.256t95.232 39.936q48.128 0 86.016-29.696t47.104-76.8l514.048-206.848q32.768 19.456 69.632 19.456 2.048 0 7.168 0t7.168-1.024l112.64 162.816q1.024 74.752 54.272 128t128 52.224q75.776 0 129.024-53.248t53.248-129.024-53.248-129.024-129.024-53.248l-174.080-126.976q-5.12-52.224-44.032-87.040t-91.136-35.84q-49.152 0-86.016 30.72t-47.104 76.8l-514.048 205.824q-32.768-19.456-69.632-19.456-56.32 0-95.232 39.936t-39.936 96.256zM35.84 474.88q0-40.96 29.696-69.632t69.632-29.696q9.216 0 21.504 2.048l-41.984 16.384v1.024q-28.672 13.312-40.96 43.008-6.144 14.336-6.144 28.672 0 15.36 6.144 30.72 12.288 30.72 40.96 43.008 15.36 7.168 31.744 6.144 13.312 0 27.648-5.12v1.024l50.176-20.48q-29.696 53.248-89.088 53.248-40.96 0-69.632-28.672t-29.696-71.68zM762.88 133.888q29.696-53.248 89.088-53.248 40.96 0 70.656 29.696t29.696 70.656-28.672 70.656-71.68 28.672q-14.336 0-21.504-2.048l40.96-16.384q30.72-12.288 44.032-43.008 7.168-15.36 7.168-30.72 0-14.336-6.144-29.696-12.288-31.744-43.008-44.032-15.36-6.144-30.72-6.144-14.336 0-29.696 6.144-8.192 3.072-24.576 10.24t-25.6 9.216zM1039.36 476.928q0-50.176 35.84-86.016t86.016-35.84q51.2 0 87.040 35.84t35.84 86.016-35.84 86.016-87.040 35.84q-50.176 0-86.016-35.84t-35.84-86.016zM1064.96 477.952q0-40.96 28.672-69.632t68.608-28.672 68.608 28.672 28.672 69.632q0 39.936-28.672 68.608t-68.608 28.672q-40.96 0-68.608-28.672t-28.672-68.608z" />
<glyph unicode="&#xe83c;" glyph-name="cloudapp" horiz-adv-x="1135" d="M0 200.448q0 106.496 75.776 182.272t180.224 75.776l1.024-1.024q0 3.072 0 7.168t-1.024 6.144q0 120.832 84.992 205.824t203.776 84.992q105.472 0 185.344-67.584t98.304-169.984h17.408q119.808 0 204.8-84.992t83.968-205.824-83.968-205.824-204.8-84.992q-8.192 0-12.288 1.024v-1.024h-591.872v1.024q-101.376 5.12-171.008 79.872t-70.656 177.152z" />
<glyph unicode="&#xe83d;" glyph-name="dropbox" horiz-adv-x="1049" d="M0 312.064l219.136 166.912-219.136 165.888 318.464 207.872 207.872-178.176 212.992 178.176 309.248-197.632-202.752-168.96 202.752-174.080-314.368-189.44-207.872 159.744-207.872-159.744zM218.112 55.040v58.368l96.256-56.32 207.872 158.72 1.024-1.024v-363.52zM223.232 481.024l301.056-189.44 303.104 200.704-301.056 173.056zM523.264-148.736l1.024 363.52 2.048 1.024 206.848-158.72 102.4 61.44v-64.512z" />
<glyph unicode="&#xe83e;" glyph-name="ebay" horiz-adv-x="1428" d="M0 285.44q0 31.744 5.12 55.296t22.528 47.104 47.104 39.936 86.016 24.576 131.072 9.216q90.112 0 151.552-13.312 39.936-8.192 59.392-18.432v-164.864h-300.032q0-21.504 2.048-33.792t9.216-31.744 27.648-27.648 50.176-9.216q87.040 0 87.040 62.464h123.904v-91.136q-27.648-13.312-57.344-19.456-69.632-15.36-153.6-15.36-94.208 0-154.624 13.312t-89.088 39.936-37.888 57.344-10.24 75.776zM202.752 320.256h182.272q0 18.432-1.024 27.648t-9.216 23.552-27.648 22.528-55.296 7.168q-31.744 0-51.2-7.168t-27.648-23.552-8.192-24.576-2.048-25.6zM502.784 133.888v91.136h79.872q-1.024-52.224-75.776-89.088-2.048-2.048-4.096-2.048zM502.784 133.888q2.048 0 4.096 2.048 74.752 36.864 75.776 89.088h-79.872v39.936h82.944q1.024 12.288 1.024 23.552 0 46.080-13.312 77.824-16.384 39.936-70.656 63.488v187.392h109.568v-207.872h2.048q31.744 45.056 90.112 45.056 44.032 0 70.656-26.624-40.96-29.696-40.96-104.448 0-106.496 77.824-124.928-1.024-31.744-5.12-55.296t-16.384-48.128-32.768-36.864-55.296-13.312q-65.536 0-93.184 51.2h-1.024v-43.008h-105.472v80.896zM502.784 264.96v164.864q54.272-23.552 70.656-63.488 13.312-31.744 13.312-77.824 0-11.264-1.024-23.552h-82.944zM612.352 253.696q0-78.848 9.216-109.568t35.84-31.744q28.672 0 37.888 31.744t9.216 109.568v5.12q0 35.84-1.024 53.248t-5.12 37.888-13.312 28.672-27.648 8.192q-16.384 0-25.6-8.192t-13.312-30.72-5.12-38.912-1.024-55.296zM734.208 323.328q0 74.752 40.96 104.448 17.408-18.432 26.624-54.272t10.24-56.32 0-65.536v-53.248q-77.824 18.432-77.824 124.928zM742.4 486.144q0 70.656 40.96 96.256 34.816 26.624 103.424 26.624 4.096 0 50.176-3.072l109.568-223.232v-104.448q0-14.336 2.048-39.936t2.048-34.816h-102.4l-5.12 53.248h-2.048q-33.792-59.392-102.4-59.392-18.432 0-26.624 1.024v53.248q0 44.032 0 65.536t-10.24 56.32-26.624 54.272q38.912 29.696 138.24 29.696h24.576v31.744q0 29.696-8.192 44.032t-36.864 14.336q-26.624 0-33.792-15.36t-7.168-46.080h-109.568zM841.728 328.448q0-63.488 41.984-63.488 13.312 0 23.552 5.12t15.36 14.336 10.24 18.432 4.096 24.576 2.048 23.552 0 24.576-1.024 20.48q-4.096 0-17.408 0t-16.384-1.024l-14.336-2.048t-14.336-3.072-11.264-5.12-9.216-8.192-7.168-11.264-5.12-16.384-1.024-20.48zM910.336 659.2h157.696l102.4-237.568 111.616 237.568h146.432l-193.536-367.616v-194.56h-144.384v194.56l-44.032 91.136v93.184q0 56.32-21.504 89.088t-88.064 40.96zM936.96 605.952q65.536-9.216 88.064-40.96t21.504-89.088v-93.184z" />
<glyph unicode="&#xe83f;" glyph-name="facebook" horiz-adv-x="551" d="M0 314.112v195.584h157.696v98.304q0 106.496 69.632 181.248t166.912 74.752h156.672v-195.584h-156.672q-15.36 0-27.648-16.384t-12.288-41.984v-100.352h196.608v-195.584h-196.608v-474.112h-196.608v474.112h-157.696z" />
<glyph unicode="&#xe840;" glyph-name="github" horiz-adv-x="962" d="M0-3.328q0-64.512 63.488-110.592t153.6-46.080 154.624 46.080 63.488 110.592q0 65.536-63.488 111.616t-154.624 46.080q-1.024 0-3.072 0t-3.072-1.024q-24.576 22.528-24.576 49.152t24.576 54.272q72.704 4.096 122.88 56.32t50.176 123.904q0 28.672-7.168 51.2 28.672 5.12 45.056 14.336v117.76q-49.152-32.768-111.616-32.768h-7.168q-47.104 31.744-103.424 31.744-76.8 0-131.072-53.248t-54.272-129.024q0-48.128 24.576-89.088t65.536-65.536q-28.672-36.864-28.672-75.776 0-36.864 26.624-76.8-47.104-21.504-74.752-56.32t-27.648-76.8zM123.904 439.040q0 33.792 22.528 58.368t51.2 23.552q30.72 0 52.224-23.552t21.504-58.368-21.504-57.344-52.224-24.576q-29.696 0-51.2 24.576t-22.528 57.344zM126.976-3.328q0 27.648 26.624 47.104t63.488 18.432 64.512-18.432 26.624-47.104q0-26.624-26.624-46.080t-64.512-19.456-63.488 19.456-26.624 46.080zM465.92 781.056q0 34.816 24.576 59.392t58.368 23.552 59.392-23.552 24.576-59.392-24.576-59.392-59.392-24.576-58.368 24.576-24.576 59.392zM485.376 118.528v490.496h137.216v-490.496h-137.216zM670.72 504.576h56.32v-291.84q4.096-30.72 20.48-52.224t34.816-32.768 38.912-16.384 30.72-7.168h20.48q27.648 0 49.152 8.192 23.552 8.192 30.72 16.384l7.168 9.216 2.048 101.376q-43.008-13.312-66.56-13.312-5.12 0-9.216 1.024-23.552 3.072-27.648 16.384l-4.096 13.312q0 3.072-1.024 4.096v243.712h93.184v104.448h-93.184v95.232h-125.952v-95.232h-56.32v-104.448z" />
<glyph unicode="&#xe841;" glyph-name="github-circled" horiz-adv-x="1022" d="M0 353.024q0 104.448 40.96 198.656 80.896 190.464 271.36 271.36 94.208 40.96 198.656 40.96t198.656-40.96q188.416-79.872 271.36-271.36 40.96-97.28 40.96-198.656t-40.96-198.656q-82.944-192.512-271.36-273.408-94.208-40.96-198.656-40.96t-198.656 40.96q-190.464 81.92-271.36 273.408-40.96 94.208-40.96 198.656zM79.872 353.024q0-144.384 86.016-258.048 84.992-111.616 222.208-158.72v81.92q0 61.44 40.96 89.088-20.48 1.024-48.128 7.168-52.224 9.216-89.088 32.768-93.184 56.32-93.184 203.776 0 76.8 51.2 131.072-23.552 60.416 5.12 131.072h20.48q10.24 0 25.6-5.12 39.936-12.288 89.088-45.056 62.464 16.384 122.88 16.384t123.904-16.384q39.936 26.624 74.752 40.96 32.768 12.288 47.104 10.24l12.288-1.024q27.648-70.656 5.12-131.072 51.2-54.272 51.2-131.072 0-114.688-56.32-173.056-30.72-32.768-80.896-51.2-41.984-15.36-93.184-19.456 41.984-29.696 41.984-89.088v-81.92q132.096 47.104 218.112 160.768 83.968 112.64 83.968 256 0 87.040-33.792 167.936-32.768 77.824-92.16 137.216-57.344 57.344-137.216 91.136-81.92 34.816-166.912 34.816-83.968 0-167.936-34.816-76.8-32.768-137.216-91.136-57.344-59.392-92.16-137.216-33.792-80.896-33.792-167.936z" />
<glyph unicode="&#xe842;" glyph-name="googleplay" horiz-adv-x="887" d="M0-155.904v1015.808l513.024-507.904zM0-155.904l513.024 507.904 137.216-136.192-206.848-119.808-443.392-256v4.096zM0 859.904v4.096l650.24-375.808-137.216-136.192zM513.024 352l137.216 136.192 236.544-136.192-236.544-136.192z" />
<glyph unicode="&#xe843;" glyph-name="itunes" d="M0 352q0 139.264 68.608 257.024t186.368 186.368 257.024 68.608 257.024-68.608 186.368-186.368 68.608-257.024-68.608-257.024-186.368-186.368-257.024-68.608-257.024 68.608-186.368 186.368-68.608 257.024zM102.4 352q0-169.984 119.808-289.792t289.792-119.808 289.792 119.808 119.808 289.792-119.808 289.792-289.792 119.808-289.792-119.808-119.808-289.792zM289.792 171.776q0-31.744 22.528-53.248t53.248-22.528q33.792 0 58.368 24.576t24.576 58.368v275.456l204.8 37.888v-212.992q-15.36 5.12-28.672 5.12-33.792 0-58.368-24.576t-24.576-58.368q0-31.744 21.504-53.248t53.248-22.528 57.344 23.552 25.6 55.296v403.456l-296.96-51.2v-307.2q-15.36 5.12-28.672 5.12-34.816 0-59.392-24.576t-24.576-58.368z" />
<glyph unicode="&#xe844;" glyph-name="plurk" horiz-adv-x="782" d="M0-160v1024h782.336v-836.608l-584.704 3.072v-190.464h-197.632zM195.584 207.616h408.576v460.8h-408.576v-460.8z" />
<glyph unicode="&#xe845;" glyph-name="songkick" d="M0 283.392v137.216t3.072 60.416 7.168 63.488 14.336 54.272 23.552 56.32 36.864 48.128 51.2 48.128q149.504 112.64 364.544 112.64h16.384v-795.648h126.976v212.992q7.168-11.264 39.936-64.512t52.224-81.92q29.696-40.96 65.536-54.272t93.184-13.312h36.864v120.832q-46.080 0-64.512 7.168t-43.008 41.984q-14.336 18.432-37.888 58.368t-26.624 44.032l175.104 243.712h-151.552l-139.264-193.536v463.872q138.24-22.528 243.712-102.4 29.696-22.528 52.224-48.128t35.84-48.128 24.576-56.32 14.336-54.272 7.168-63.488 2.048-60.416v-137.216t-2.048-60.416-7.168-62.464-14.336-54.272-24.576-57.344-35.84-47.104-52.224-49.152q-149.504-112.64-375.808-112.64t-375.808 112.64q-29.696 22.528-51.2 49.152t-36.864 47.104-23.552 57.344-14.336 54.272-7.168 62.464-3.072 60.416zM82.944 130.816q67.584-68.608 196.608-68.608 81.92 0 141.312 41.984t58.368 120.832q0 52.224-18.432 87.040t-46.080 46.080-59.392 20.48-60.416 9.216-46.080 11.264-18.432 30.72q0 48.128 71.68 47.104 58.368 0 89.088-29.696l79.872 79.872q-61.44 61.44-174.080 61.44-79.872 0-134.144-41.984t-55.296-120.832q0-52.224 21.504-84.992t52.224-46.080 64.512-17.408 60.416-9.216 37.888-14.336q10.24-11.264 10.24-30.72 0-47.104-73.728-47.104-78.848 0-115.712 36.864z" />
<glyph unicode="&#xe846;" glyph-name="lastfm" horiz-adv-x="1361" d="M0 352q0 167.936 118.784 286.72t286.72 118.784q126.976 0 225.28-64.512t149.504-185.344q15.36-36.864 132.096-307.2 21.504-49.152 38.912-74.752t50.176-46.080 80.896-22.528h7.168q68.608 0 113.664 36.864 47.104 38.912 48.128 98.304 0 27.648-8.192 46.080t-29.696 32.768-41.984 22.528-60.416 20.48q-128 41.984-184.32 92.16t-56.32 138.24q0 93.184 59.392 149.504t159.744 55.296q130.048 0 195.584-117.76l-86.016-44.032q-46.080 63.488-114.688 63.488-47.104 0-77.824-28.672t-31.744-74.752q0-13.312 2.048-24.576t9.216-21.504 12.288-16.384 17.408-14.336 20.48-12.288 25.6-10.24 27.648-10.24 31.744-10.24 33.792-10.24q110.592-36.864 158.72-86.016t47.104-143.36q0-102.4-77.824-169.984-76.8-66.56-190.464-66.56h-3.072q-102.4 0-164.864 48.128t-105.472 143.36l-14.336 33.792-130.048 294.912q-33.792 78.848-106.496 126.976t-162.816 48.128q-121.856 0-207.872-86.016t-87.040-208.896 87.040-207.872 207.872-87.040q83.968 0 153.6 44.032t107.52 114.688l52.224-120.832q-56.32-69.632-138.24-109.568t-175.104-38.912q-167.936 0-286.72 118.784t-118.784 286.72z" />
<glyph unicode="&#xe847;" glyph-name="gmail" horiz-adv-x="1231" d="M0-105.728v918.528h189.44l9.216-8.192h844.8l9.216 8.192h178.176v-921.6h-175.104v7.168h-875.52v-4.096h-180.224zM180.224 29.44v-81.92h875.52v75.776l-353.28 265.216-80.896-66.56-88.064 71.68zM180.224 90.88l314.368 234.496-314.368 258.048v-492.544zM265.216 747.264l356.352-305.152 355.328 305.152h-711.68zM741.376 320.256l314.368-235.52v495.616z" />
<glyph unicode="&#xe848;" glyph-name="pinboard" d="M0 533.248l323.584 330.752v-125.952l308.224-283.648 191.488 47.104-199.68-212.992 400.384-448.512-454.656 401.408-192.512-196.608 30.72 173.056-261.12 323.584z" />
<glyph unicode="&#xe849;" glyph-name="openid" horiz-adv-x="1109" d="M0 201.472q-1.024 64.512 25.6 119.808t68.608 91.136 94.208 64.512 103.424 44.032 94.208 25.6 69.632 13.312l26.624 3.072v-125.952q-58.368-4.096-106.496-19.456t-79.872-37.888-54.272-46.080-35.84-49.152-19.456-44.032-8.192-31.744l-2.048-12.288q-3.072-15.36-3.072-30.72 0-22.528 7.168-43.008 12.288-34.816 38.912-59.392t60.416-45.056 69.632-34.816 65.536-21.504 48.128-13.312l19.456-3.072v-105.472q-99.328 10.24-179.2 35.84t-130.048 57.344-84.992 69.632-52.224 72.704-24.576 63.488-10.24 45.056zM522.24-160v923.648l145.408 100.352v-944.128zM702.464 445.184h5.12q38.912-1.024 78.848-15.36 43.008-16.384 65.536-31.744l21.504-16.384-84.992-34.816 320.512-79.872v250.88l-109.568-62.464q-40.96 44.032-114.688 70.656t-129.024 31.744l-53.248 5.12v-117.76z" />
<glyph unicode="&#xe84a;" glyph-name="quora" horiz-adv-x="910" d="M0 402.176q0 124.928 61.44 231.424t164.864 168.96 228.352 61.44q188.416 0 322.56-135.168t133.12-326.656q0-121.856-58.368-225.28t-157.696-166.912q1.024-2.048 4.096-6.144t11.264-17.408 21.504-22.528 33.792-21.504 46.080-17.408v-77.824q-36.864-7.168-68.608-7.168-51.2 0-87.040 18.432-57.344 29.696-93.184 96.256-49.152-13.312-107.52-13.312-122.88 0-227.328 62.464t-165.888 167.936-61.44 230.4zM226.304 341.76q0-118.784 68.608-202.752t163.84-84.992q26.624 0 53.248 8.192-2.048 3.072-5.12 9.216t-15.36 18.432-23.552 24.576-31.744 19.456-37.888 10.24v90.112q10.24 1.024 20.48 1.024 121.856 0 207.872-92.16 64.512 82.944 64.512 198.656v118.784q0 118.784-67.584 203.776t-164.864 83.968-163.84-83.968-68.608-203.776v-118.784z" />
<glyph unicode="&#xe84b;" glyph-name="soundcloud" horiz-adv-x="1180" d="M0 219.904q0 16.384 4.096 45.056t9.216 31.744q6.144-3.072 11.264-32.768t4.096-44.032q0-14.336-4.096-43.008t-11.264-32.768q-13.312 7.168-13.312 75.776zM65.536 219.904q0 25.6 5.12 75.776t6.144 62.464q0 6.144 6.144 6.144 4.096 0 6.144-6.144 12.288-132.096 12.288-138.24 0-24.576-5.12-72.704t-7.168-60.416q-2.048-7.168-6.144-7.168-6.144 0-6.144 7.168-1.024 11.264-6.144 60.416t-5.12 72.704zM148.48 219.904q0 24.576 5.12 75.776t5.12 55.296q0 9.216 7.168 9.216 8.192 0 8.192-9.216 11.264-115.712 11.264-131.072t-11.264-139.264q0-8.192-8.192-8.192-7.168 0-7.168 8.192 0 7.168-5.12 60.416t-5.12 78.848zM242.688 219.904q0 38.912 2.048 82.944t4.096 97.28 3.072 82.944q0 10.24 9.216 10.24 10.24 0 10.24-10.24 1.024-16.384 6.144-113.664t4.096-149.504q0-26.624-5.12-78.848t-5.12-59.392q0-10.24-10.24-10.24-9.216 0-9.216 10.24-9.216 135.168-9.216 138.24zM338.944 219.904q0 56.32 3.072 163.84t4.096 131.072q2.048 12.288 12.288 12.288t12.288-12.288q1.024-32.768 5.12-136.192t3.072-158.72q0-25.6-3.072-73.728t-5.12-62.464q-2.048-12.288-12.288-12.288t-12.288 12.288q0 11.264-3.072 60.416t-4.096 75.776zM436.224 219.904q0 40.96 1.024 87.040t3.072 102.4 2.048 87.040q2.048 15.36 14.336 15.36t14.336-15.36q1.024-30.72 3.072-87.040t2.048-102.4 1.024-87.040q0-2.048-6.144-134.144v1.024q-2.048-15.36-14.336-15.36t-14.336 14.336q-6.144 132.096-6.144 134.144zM533.504 218.88q0 3.072 6.144 359.424 2.048 18.432 16.384 18.432t16.384-18.432q6.144-356.352 6.144-359.424 0-1.024-6.144-130.048-2.048-17.408-16.384-17.408t-16.384 17.408q-6.144 129.024-6.144 130.048zM615.424 436.992q0 83.968 1.024 158.72-1.024 10.24 13.312 18.432t32.768 12.288 35.84 5.12 24.576 2.048q99.328 0 173.056-73.728t81.92-183.296q28.672 13.312 56.32 13.312 59.392 0 102.4-46.080t43.008-113.664-43.008-112.64-102.4-47.104h-402.432q-6.144 0-10.24 6.144t-5.12 13.312q0 56.32 0 159.744t-1.024 187.392z" />
<glyph unicode="&#xe84c;" glyph-name="tumblr" horiz-adv-x="631" d="M0 444.16v145.408q61.44 20.48 103.424 56.32 41.984 33.792 68.608 88.064 26.624 52.224 35.84 130.048h146.432v-259.072h242.688v-160.768h-242.688v-262.144q0-88.064 9.216-114.688 9.216-24.576 34.816-39.936 34.816-20.48 77.824-20.48 78.848 0 154.624 50.176v-160.768q-64.512-31.744-118.784-44.032-53.248-12.288-114.688-12.288-69.632 0-124.928 17.408-56.32 19.456-91.136 51.2-36.864 31.744-53.248 69.632-14.336 34.816-14.336 107.52v358.4h-113.664z" />
<glyph unicode="&#xe84d;" glyph-name="eventasaurus" horiz-adv-x="1035" d="M0 2.816v694.272q0 67.584 44.032 117.76t110.592 49.152h713.728q71.68 0 119.808-37.888t47.104-109.568v-60.416q-75.776 14.336-113.664 20.48-54.272 7.168-55.296 7.168-10.24 3.072-29.696 10.24t-34.816 11.264-33.792 3.072q-63.488 0-135.168-48.128-34.816-3.072-97.28-7.168t-114.688-9.216-98.304-14.336h-2.048l-1.024-1.024h-4.096l-1.024-1.024h-1.024q-73.728-14.336-89.088-26.624-18.432-15.36-20.48-72.704v-168.96l-3.072-18.432 538.624-13.312 81.92 27.648q-45.056-80.896-71.68-135.168l-108.544-48.128-415.744-7.168q-3.072-3.072-10.24-3.072t-11.264-5.12q4.096-26.624 7.168-39.936 12.288-53.248 114.688-60.416 210.944-13.312 343.040-13.312 38.912 0 122.88 20.48t130.048 20.48q66.56 0 113.664-29.696v-55.296q0-158.72-157.696-158.72h-740.352q-62.464 0-99.328 49.152t-37.888 113.664zM706.56 561.92q0 14.336 10.24 25.6t24.576 10.24 25.6-10.24 10.24-25.6-10.24-24.576-25.6-10.24-24.576 10.24-10.24 24.576z" />
<glyph unicode="&#xe84e;" glyph-name="wordpress" d="M0 352q0 139.264 68.608 257.024t186.368 186.368 257.024 68.608 257.024-68.608 186.368-186.368 68.608-257.024-68.608-257.024-186.368-186.368-257.024-68.608-257.024 68.608-186.368 186.368-68.608 257.024zM39.936 352q0-138.24 73.728-252.928t192.512-172.032l-225.28 617.472q-40.96-91.136-40.96-192.512zM116.736 611.072h30.72q49.152 0 125.952 6.144 12.288 1.024 18.432-8.192t1.024-19.456-16.384-11.264l-54.272-5.12 172.032-510.976 103.424 309.248-73.728 201.728q-24.576 3.072-49.152 5.12-12.288 1.024-16.384 11.264t2.048 19.456 17.408 8.192l123.904-6.144q50.176 0 125.952 6.144 12.288 1.024 18.432-8.192t1.024-19.456-16.384-11.264l-53.248-5.12 169.984-507.904 47.104 157.696q36.864 119.808 36.864 152.576 0 65.536-39.936 131.072-2.048 3.072-12.288 21.504t-14.336 24.576-9.216 19.456-8.192 23.552-2.048 21.504q0 33.792 23.552 59.392t56.32 24.576q1.024 0 3.072 0t3.072-1.024q-134.144 123.904-319.488 123.904-121.856 0-226.304-57.344t-168.96-155.648zM378.88-101.632q63.488-18.432 133.12-18.432 81.92 0 156.672 26.624l-3.072 6.144-145.408 398.336zM749.568-56.576q107.52 62.464 171.008 172.032t63.488 236.544q0 122.88-57.344 226.304 3.072-21.504 3.072-48.128 0-64.512-35.84-168.96z" />
<glyph unicode="&#xe84f;" glyph-name="yelp" horiz-adv-x="759" d="M0 261.888v-13.312q0-44.032 6.144-70.656 5.12-18.432 19.456-26.624t29.696-2.048l208.896 64.512q22.528 7.168 31.744 26.624 5.12 10.24 5.12 20.48t-5.12 19.456q-9.216 19.456-32.768 26.624l-208.896 83.968q-14.336 3.072-27.648-8.192t-17.408-30.72q-8.192-36.864-9.216-90.112zM89.088 750.336q-5.12 8.192-5.12 16.384 0 9.216 6.144 18.432 12.288 17.408 38.912 27.648 82.944 31.744 175.104 47.104h5.12q46.080 0 50.176-38.912 25.6-320.512 25.6-402.432 0-33.792-27.648-40.96-6.144-2.048-12.288-2.048-21.504 0-37.888 25.6-151.552 237.568-218.112 349.184zM159.744-34.048l142.336 171.008q19.456 21.504 38.912 21.504 8.192 0 16.384-3.072 25.6-11.264 25.6-46.080 0-5.12-1.024-10.24v-227.328q-2.048-14.336-17.408-22.528-9.216-5.12-18.432-5.12-8.192 0-16.384 3.072-36.864 6.144-87.040 26.624t-74.752 37.888q-18.432 14.336-18.432 30.72 0 11.264 10.24 23.552zM460.8 312.064q-6.144 12.288-6.144 23.552 0 17.408 15.36 33.792l133.12 183.296q7.168 8.192 20.48 8.192 3.072 0 7.168-1.024 17.408-2.048 29.696-18.432 25.6-26.624 54.272-72.704t37.888-74.752q3.072-8.192 3.072-15.36 0-9.216-4.096-16.384-8.192-13.312-23.552-16.384l-214.016-54.272q-8.192-2.048-16.384-2.048-23.552 0-36.864 22.528zM473.088 184.064q-9.216-12.288-9.216-24.576 0-16.384 13.312-32.768l116.736-195.584q7.168-9.216 24.576-9.216h3.072q19.456 1.024 33.792 15.36 27.648 24.576 57.344 64.512t41.984 71.68q4.096 11.264 4.096 21.504 0 7.168-3.072 13.312-5.12 14.336-19.456 19.456l-209.92 71.68q-10.24 4.096-19.456 4.096-21.504 0-33.792-19.456z" />
<glyph unicode="&#xe850;" glyph-name="intensedebate" horiz-adv-x="1317" d="M0 514.816q178.176 33.792 212.992 72.704 27.648 30.72 46.080 93.184 18.432-23.552 23.552-49.152t1.024-40.96l-5.12-13.312q-6.144-13.312-10.24-21.504t-8.192-13.312-9.216-11.264-10.24-9.216-16.384-11.264-21.504-14.336q-35.84-27.648-33.792-63.488t30.72-56.32q26.624-16.384 52.224 6.144t53.248 79.872q12.288 25.6 19.456 67.584t19.456 74.752 48.128 60.416q20.48 16.384 47.104 19.456t51.2 1.024 52.224 0 61.44 24.576 68.608 65.536q5.12 6.144 14.336 16.384t38.912 29.696 60.416 28.672 75.776-1.024 88.064-46.080q-49.152 21.504-92.16 21.504t-68.608-15.36-45.056-33.792-26.624-33.792l-7.168-15.36q-15.36-37.888-28.672-62.464t-24.576-39.936-25.6-22.528-24.576-12.288-32.768-8.192-38.912-10.24q-44.032-13.312-51.2-55.296-6.144-36.864 22.528-54.272 32.768-18.432 83.968 14.336 37.888 24.576 61.44 51.2t30.72 45.056 28.672 39.936 52.224 37.888q44.032 21.504 83.968 29.696t84.992 8.192 68.608 3.072q201.728 32.768 251.904 116.736 49.152 80.896 50.176 133.12 17.408-59.392 12.288-106.496t-27.648-81.92-45.056-58.368-41.984-34.816l-18.432-11.264q-78.848-40.96-131.072-56.32t-86.016-21.504-63.488-22.528q-105.472-56.32-53.248-158.72 21.504-41.984 63.488-45.056t78.848 29.696q6.144 5.12 14.336 14.336t23.552 39.936 15.36 62.464q20.48-57.344 16.384-98.304t-21.504-65.536l-15.36-22.528q-36.864-38.912-61.44-54.272t-64.512-19.456-92.16 15.36q-88.064 21.504-121.856 21.504t-63.488-18.432q-28.672-16.384-44.032-43.008t-2.048-50.176q14.336-25.6 34.816-27.648t65.536 21.504q39.936 23.552 67.584 30.72t69.632 8.192q89.088 2.048 142.336-38.912 37.888-24.576 75.776-58.368-40.96 24.576-80.896 31.744t-67.584-1.024-49.152-18.432-32.768-22.528l-10.24-10.24q-46.080-52.224-76.8-73.728t-54.272-21.504-60.416 15.36q-10.24 4.096-39.936 17.408t-43.008 16.384v112.64q0 123.904-94.208 190.464-60.416 40.96-137.216 40.96-77.824 0-137.216-39.936-20.48 29.696-52.224 33.792v76.8q0 31.744-21.504 54.272t-54.272 21.504h-18.432zM130.048-62.72v165.888q0 66.56 19.456 101.376 40.96 72.704 137.216 72.704 70.656 0 113.664-44.032t41.984-112.64v-138.24h-206.848v-68.608q0-49.152 51.2-49.152 46.080 0 51.2 50.176h104.448q0-63.488-41.984-107.52-44.032-44.032-113.664-44.032-96.256 0-137.216 72.704-19.456 34.816-19.456 101.376zM235.52 61.184h102.4v57.344q0 57.344-51.2 57.344t-51.2-57.344v-57.344zM503.808-142.592q11.264 36.864 11.264 72.704 0 11.264-3.072 20.48 24.576-4.096 34.816-5.12 63.488-6.144 87.040-47.104 2.048-3.072 5.12-9.216t7.168-23.552-1.024-31.744q-31.744 24.576-66.56 30.72t-55.296-1.024z" />
<glyph unicode="&#xe851;" glyph-name="eventbrite" horiz-adv-x="871" d="M1.024-34.048q3.072 31.744 12.288 67.584 11.264 46.080 73.728 359.424t72.704 357.376q12.288 53.248 24.576 74.752t39.936 29.696 89.088 9.216h246.784q60.416 0 138.24-1.024t118.784-1.024q41.984 0 51.2-46.080 10.24-49.152-23.552-94.208-30.72-40.96-82.944-40.96h-410.624l-51.2-238.592 360.448-3.072q45.056 0 55.296-46.080t-21.504-86.016q-27.648-33.792-71.68-33.792h-368.64l-49.152-253.952h442.368q65.536 0 78.848-45.056t-17.408-89.088-69.632-45.056h-566.272q-30.72 0-48.128 17.408t-22.528 47.104-1.024 61.44z" />
<glyph unicode="&#xe852;" glyph-name="scribd" horiz-adv-x="882" d="M0 134.912q0 45.056 32.768 77.824t77.824 32.768 77.824-32.768 32.768-77.824q0-47.104-34.816-79.872 66.56-75.776 166.912-75.776 70.656 0 118.784 41.984 48.128 43.008 48.128 108.544 0 39.936-25.6 78.848-23.552 38.912-61.44 65.536-34.816 23.552-117.76 58.368-76.8 30.72-124.928 60.416-43.008 27.648-74.752 65.536-30.72 36.864-47.104 75.776-14.336 39.936-14.336 80.896 0 103.424 82.944 176.128 83.968 72.704 201.728 72.704 78.848 0 158.72-33.792 67.584-28.672 115.712-81.92 37.888-32.768 37.888-81.92 0-46.080-32.768-77.824t-77.824-32.768q-46.080 0-77.824 32.768t-32.768 77.824q0 21.504 10.24 45.056-32.768 16.384-90.112 16.384-70.656 0-114.688-31.744t-44.032-81.92q0-44.032 38.912-77.824 40.96-33.792 131.072-72.704 94.208-40.96 144.384-74.752 52.224-34.816 83.968-75.776 33.792-41.984 49.152-87.040 0-1.024 1.024-3.072t1.024-3.072q-76.8-63.488-76.8-161.792 0-54.272 28.672-106.496-11.264-13.312-24.576-27.648-89.088-83.968-210.944-83.968t-212.992 65.536-142.336 198.656l3.072 1.024q-5.12 15.36-5.12 29.696zM627.712 58.112q0-53.248 36.864-91.136t90.112-36.864 90.112 36.864 36.864 91.136q0 52.224-36.864 90.112t-90.112 36.864-90.112-36.864-36.864-90.112z" />
<glyph unicode="&#xe853;" glyph-name="posterous" horiz-adv-x="680" d="M0 848.64h102.4l8.192-123.904h10.24l5.12 3.072q80.896 136.192 251.904 136.192 133.12 0 218.112-100.352t83.968-260.096q0-95.232-27.648-169.984t-73.728-120.832-103.424-68.608-119.808-23.552q-70.656 0-128 29.696t-89.088 80.896l-2.048 3.072h-11.264l-3.072-7.168v-387.072h-115.712v779.264q0 90.112-6.144 229.376zM121.856 425.728q0-31.744 6.144-56.32 19.456-71.68 75.776-115.712t129.024-44.032q103.424 0 165.888 78.848t62.464 208.896q0 121.856-62.464 198.656t-160.768 76.8q-73.728 0-131.072-46.080t-75.776-120.832q-9.216-33.792-9.216-54.272v-125.952z" />
<glyph unicode="&#xe854;" glyph-name="stripe" horiz-adv-x="684" d="M1.024 517.888q-11.264 154.624 129.024 258.048 64.512 48.128 148.48 71.68 79.872 23.552 179.2 11.264t185.344-60.416q-2.048-40.96 0-77.824 6.144-121.856-10.24-156.672-9.216 1.024-53.248 14.336-36.864 11.264-67.584 16.384-31.744 6.144-62.464 8.192-71.68 6.144-101.376-38.912 8.192-45.056 38.912-67.584 30.72-21.504 83.968-37.888 50.176-14.336 70.656-26.624 115.712-71.68 142.336-224.256v-87.040q0-82.944-46.080-145.408t-120.832-95.232q-107.52-45.056-250.88-38.912t-244.736 60.416q3.072 41.984 0 80.896-3.072 43.008-2.048 82.944 2.048 44.032 12.288 70.656 18.432-3.072 49.152-11.264 54.272-15.36 75.776-19.456 168.96-36.864 181.248 40.96 3.072 22.528-11.264 41.984t-34.816 29.696q-28.672 14.336-49.152 22.528-29.696 12.288-37.888 17.408-45.056 23.552-60.416 32.768-58.368 34.816-81.92 69.632-55.296 78.848-61.44 157.696z" />
<glyph unicode="&#xe855;" glyph-name="opentable" horiz-adv-x="1304" d="M0 386.816v52.224q0 38.912 89.088 66.56t216.064 27.648 216.064-27.648 89.088-66.56v-52.224q-1.024-38.912-90.112-65.536t-215.040-27.648-215.040 27.648-90.112 65.536zM293.888 635.648v27.648q2.048 19.456 65.536 33.792t152.576 13.312 152.576-13.312 64.512-33.792h1.024v-27.648h-1.024q-2.048-20.48-64.512-33.792t-152.576-14.336-152.576 14.336-65.536 33.792zM509.952 129.792v65.536q4.096 57.344 119.808 97.28t277.504 38.912 277.504-38.912 118.784-97.28v-65.536q-3.072-56.32-118.784-96.256t-277.504-39.936-277.504 39.936-119.808 96.256zM743.424 478.976v43.008q2.048 29.696 77.824 50.176t179.2 20.48 180.224-20.48 76.8-50.176v-43.008q0-29.696-74.752-51.2t-182.272-21.504-181.248 21.504-75.776 51.2z" />
<glyph unicode="&#xe856;" glyph-name="cart" horiz-adv-x="1147" d="M0 714.496q0 20.48 13.312 33.792t33.792 13.312h240.64q16.384 0 29.696-9.216t16.384-26.624l24.576-100.352h690.176l7.168 21.504q10.24 32.768 44.032 32.768 9.216 0 13.312-2.048 15.36-4.096 24.576-16.384t9.216-27.648q0-5.12-2.048-13.312l-120.832-402.432q-4.096-15.36-16.384-24.576t-27.648-9.216h-572.416q-16.384 0-28.672 10.24t-17.408 25.6l-110.592 448.512h-203.776q-19.456 0-32.768 13.312t-14.336 32.768zM380.928 532.224l63.488-253.952h500.736l2.048 9.216 73.728 244.736h-640zM423.936 36.608q0 38.912 28.672 66.56t66.56 27.648 66.56-27.648 27.648-66.56-27.648-66.56-66.56-27.648-66.56 27.648-28.672 66.56zM490.496 452.352h169.984v-94.208h-149.504zM741.376 358.144l1.024 94.208h165.888l-24.576-94.208h-142.336zM779.264 36.608q0 38.912 28.672 66.56t66.56 27.648 66.56-27.648 27.648-66.56-27.648-66.56-66.56-27.648-66.56 27.648-28.672 66.56z" />
<glyph unicode="&#xe857;" glyph-name="print" horiz-adv-x="946" d="M0-57.6v340.992l118.784 132.096h87.040v-65.536h-57.344l-81.92-91.136v-250.88h814.080v250.88l-81.92 91.136h-57.344v65.536h87.040l117.76-132.096v-340.992h-946.176zM205.824 269.056v337.92l154.624 154.624h380.928v-492.544h-535.552zM267.264 331.52h412.672v368.64h-258.048v-154.624h-154.624v-214.016z" />
<glyph unicode="&#xe858;" glyph-name="angellist" horiz-adv-x="733" d="M0 132.864q0 64.512 28.672 100.352 23.552 31.744 75.776 46.080-16.384 40.96-16.384 60.416 0 33.792 35.84 71.68 37.888 35.84 70.656 35.84 17.408 0 40.96-9.216-49.152 140.288-70.656 212.992-24.576 82.944-24.576 117.76 0 49.152 24.576 76.8 25.6 28.672 68.608 28.672 73.728 0 177.152-302.080l17.408-50.176q6.144 15.36 12.288 33.792 102.4 299.008 184.32 299.008 40.96 0 64.512-27.648 24.576-27.648 24.576-71.68 0-28.672-24.576-115.712-21.504-74.752-67.584-204.8 58.368-14.336 83.968-55.296 27.648-44.032 27.648-136.192 0-182.272-108.544-297.984-110.592-115.712-280.576-115.712-67.584 0-130.048 24.576-60.416 21.504-109.568 67.584-52.224 49.152-77.824 101.376-26.624 55.296-26.624 109.568zM66.56 137.984q0-25.6 14.336-60.416 13.312-32.768 39.936-68.608 41.984-54.272 99.328-82.944 58.368-28.672 132.096-28.672 132.096 0 222.208 99.328 89.088 98.304 89.088 248.832 0 47.104-6.144 72.704-5.12 22.528-19.456 34.816-27.648 23.552-108.544 40.96-80.896 18.432-172.032 18.432-22.528 0-28.672-6.144-7.168-3.072-7.168-20.48 0-41.984 47.104-59.392 51.2-21.504 168.96-21.504h28.672q16.384 0 23.552-11.264 8.192-8.192 11.264-31.744-17.408-17.408-56.32-31.744-36.864-13.312-54.272-26.624-40.96-29.696-65.536-70.656-23.552-39.936-23.552-75.776 0-21.504 10.24-52.224 11.264-33.792 11.264-44.032v-6.144l-4.096-15.36q-45.056 3.072-65.536 41.984-17.408 32.768-19.456 83.968-3.072-1.024-12.288-1.024h-11.264q1.024-5.12 1.024-12.288 0-30.72-23.552-52.224t-55.296-21.504q-48.128 0-97.28 46.080-49.152 47.104-49.152 92.16 0 8.192 3.072 16.384 1.024 7.168 16.384 22.528 25.6-31.744 34.816-44.032 43.008-60.416 77.824-60.416 9.216 0 17.408 6.144 6.144 6.144 6.144 10.24 0 8.192-12.288 29.696-8.192 15.36-37.888 54.272-28.672 36.864-46.080 51.2-15.36 14.336-22.528 14.336-19.456 0-37.888-22.528t-18.432-56.32zM158.72 333.568q0-13.312 16.384-46.080 14.336-27.648 46.080-69.632 31.744-40.96 57.344-63.488 24.576-20.48 36.864-20.48 7.168 0 14.336 7.168 7.168 8.192 7.168 16.384 0 12.288-18.432 59.392-21.504 52.224-47.104 94.208-22.528 35.84-39.936 50.176-16.384 15.36-31.744 15.36-11.264 0-25.6-15.36-15.36-15.36-15.36-27.648zM204.8 775.936q0-34.816 24.576-109.568 22.528-72.704 67.584-194.56 10.24 6.144 28.672 6.144 1.024 0 7.168 0t10.24-1.024q4.096 0 26.624-2.048l-70.656 204.8q-28.672 81.92-45.056 106.496-13.312 21.504-26.624 21.504-9.216 0-15.36-8.192-7.168-9.216-7.168-23.552zM374.784 253.696q9.216-23.552 19.456-51.2 20.48 23.552 40.96 38.912-5.12 1.024-15.36 3.072t-15.36 2.048q-20.48 4.096-29.696 7.168zM482.304 462.592l68.608-12.288q46.080 126.976 70.656 203.776 25.6 82.944 25.6 98.304 0 16.384-7.168 25.6-4.096 7.168-15.36 7.168-14.336 0-31.744-27.648-19.456-29.696-44.032-103.424z" />
</font>
</defs>
</svg>
